  0
SECTION
  2
HEADER
  9
$ACADVER
  1
AC1015
  9
$ACADMAINTVER
 70
    10
  9
$DWGCODEPAGE
  3
ANSI_932
  9
$INSBASE
 10
0.0
 20
0.0
 30
0.0
  9
$EXTMIN
 10
-187.1726961147458
 20
-672.20055880285
 30
-0.0000000000000053
  9
$EXTMAX
 10
585.0323550320445
 20
437.5423834725288
 30
0.0000000000000099
  9
$LIMMIN
 10
-296.316999476111
 20
-370.7034300441653
  9
$LIMMAX
 10
623.3128432133979
 20
328.6261559379898
  9
$ORTHOMODE
 70
     0
  9
$REGENMODE
 70
     1
  9
$FILLMODE
 70
     1
  9
$QTEXTMODE
 70
     0
  9
$MIRRTEXT
 70
     1
  9
$LTSCALE
 40
10.0
  9
$ATTMODE
 70
     1
  9
$TEXTSIZE
 40
5.0
  9
$TRACEWID
 40
0.05
  9
$TEXTSTYLE
  7
STANDARD1
  9
$CLAYER
  8
10
  9
$CELTYPE
  6
CONTINUOUS
  9
$CECOLOR
 62
   256
  9
$CELTSCALE
 40
1.0
  9
$DISPSILH
 70
     0
  9
$DIMSCALE
 40
1.0
  9
$DIMASZ
 40
2.0
  9
$DIMEXO
 40
3.0
  9
$DIMDLI
 40
0.5
  9
$DIMRND
 40
0.0
  9
$DIMDLE
 40
0.0
  9
$DIMEXE
 40
0.5
  9
$DIMTP
 40
0.0
  9
$DIMTM
 40
0.0
  9
$DIMTXT
 40
6.0
  9
$DIMCEN
 40
0.09
  9
$DIMTSZ
 40
0.0
  9
$DIMTOL
 70
     0
  9
$DIMLIM
 70
     0
  9
$DIMTIH
 70
     0
  9
$DIMTOH
 70
     1
  9
$DIMSE1
 70
     0
  9
$DIMSE2
 70
     0
  9
$DIMTAD
 70
     3
  9
$DIMZIN
 70
    12
  9
$DIMBLK
  1
OPEN
  9
$DIMASO
 70
     1
  9
$DIMSHO
 70
     1
  9
$DIMPOST
  1

  9
$DIMAPOST
  1

  9
$DIMALT
 70
     0
  9
$DIMALTD
 70
     2
  9
$DIMALTF
 40
25.4
  9
$DIMLFAC
 40
1.0
  9
$DIMTOFL
 70
     0
  9
$DIMTVP
 40
0.0
  9
$DIMTIX
 70
     0
  9
$DIMSOXD
 70
     0
  9
$DIMSAH
 70
     0
  9
$DIMBLK1
  1

  9
$DIMBLK2
  1

  9
$DIMSTYLE
  2
STANDARD1
  9
$DIMCLRD
 70
     0
  9
$DIMCLRE
 70
     0
  9
$DIMCLRT
 70
     0
  9
$DIMTFAC
 40
1.0
  9
$DIMGAP
 40
3.0
  9
$DIMJUST
 70
     0
  9
$DIMSD1
 70
     0
  9
$DIMSD2
 70
     0
  9
$DIMTOLJ
 70
     1
  9
$DIMTZIN
 70
     0
  9
$DIMALTZ
 70
     0
  9
$DIMALTTZ
 70
     0
  9
$DIMUPT
 70
     0
  9
$DIMDEC
 70
     1
  9
$DIMTDEC
 70
     1
  9
$DIMALTU
 70
     2
  9
$DIMALTTD
 70
     2
  9
$DIMTXSTY
  7
STANDARD
  9
$DIMAUNIT
 70
     0
  9
$DIMADEC
 70
     0
  9
$DIMALTRND
 40
0.0
  9
$DIMAZIN
 70
     0
  9
$DIMDSEP
 70
    46
  9
$DIMATFIT
 70
     2
  9
$DIMFRAC
 70
     0
  9
$DIMLDRBLK
  1
OPEN
  9
$DIMLUNIT
 70
     2
  9
$DIMLWD
 70
    -2
  9
$DIMLWE
 70
    -2
  9
$DIMTMOVE
 70
     0
  9
$LUNITS
 70
     2
  9
$LUPREC
 70
     4
  9
$SKETCHINC
 40
0.1
  9
$FILLETRAD
 40
0.0
  9
$AUNITS
 70
     0
  9
$AUPREC
 70
     0
  9
$MENU
  1
.
  9
$ELEVATION
 40
0.0
  9
$PELEVATION
 40
0.0
  9
$THICKNESS
 40
0.0
  9
$LIMCHECK
 70
     0
  9
$CHAMFERA
 40
0.0
  9
$CHAMFERB
 40
0.0
  9
$CHAMFERC
 40
0.0
  9
$CHAMFERD
 40
0.0
  9
$SKPOLY
 70
     0
  9
$TDCREATE
 40
2452286.555658657
  9
$TDUCREATE
 40
2452286.180658657
  9
$TDUPDATE
 40
2454700.754031029
  9
$TDUUPDATE
 40
2454700.379031030
  9
$TDINDWG
 40
1.5634300694
  9
$TDUSRTIMER
 40
1.5634262500
  9
$USRTIMER
 70
     1
  9
$ANGBASE
 50
0.0
  9
$ANGDIR
 70
     0
  9
$PDMODE
 70
     0
  9
$PDSIZE
 40
0.0
  9
$PLINEWID
 40
0.0
  9
$SPLFRAME
 70
     0
  9
$SPLINETYPE
 70
     6
  9
$SPLINESEGS
 70
     8
  9
$HANDSEED
  5
CD64
  9
$SURFTAB1
 70
     6
  9
$SURFTAB2
 70
     6
  9
$SURFTYPE
 70
     6
  9
$SURFU
 70
     6
  9
$SURFV
 70
     6
  9
$UCSBASE
  2

  9
$UCSNAME
  2

  9
$UCSORG
 10
0.0
 20
0.0
 30
0.0
  9
$UCSXDIR
 10
1.0
 20
0.0
 30
0.0
  9
$UCSYDIR
 10
0.0
 20
1.0
 30
0.0
  9
$UCSORTHOREF
  2

  9
$UCSORTHOVIEW
 70
     0
  9
$UCSORGTOP
 10
0.0
 20
0.0
 30
0.0
  9
$UCSORGBOTTOM
 10
0.0
 20
0.0
 30
0.0
  9
$UCSORGLEFT
 10
0.0
 20
0.0
 30
0.0
  9
$UCSORGRIGHT
 10
0.0
 20
0.0
 30
0.0
  9
$UCSORGFRONT
 10
0.0
 20
0.0
 30
0.0
  9
$UCSORGBACK
 10
0.0
 20
0.0
 30
0.0
  9
$PUCSBASE
  2

  9
$PUCSNAME
  2

  9
$PUCSORG
 10
0.0
 20
0.0
 30
0.0
  9
$PUCSXDIR
 10
1.0
 20
0.0
 30
0.0
  9
$PUCSYDIR
 10
0.0
 20
1.0
 30
0.0
  9
$PUCSORTHOREF
  2

  9
$PUCSORTHOVIEW
 70
     0
  9
$PUCSORGTOP
 10
0.0
 20
0.0
 30
0.0
  9
$PUCSORGBOTTOM
 10
0.0
 20
0.0
 30
0.0
  9
$PUCSORGLEFT
 10
0.0
 20
0.0
 30
0.0
  9
$PUCSORGRIGHT
 10
0.0
 20
0.0
 30
0.0
  9
$PUCSORGFRONT
 10
0.0
 20
0.0
 30
0.0
  9
$PUCSORGBACK
 10
0.0
 20
0.0
 30
0.0
  9
$USERI1
 70
     0
  9
$USERI2
 70
     0
  9
$USERI3
 70
     0
  9
$USERI4
 70
     0
  9
$USERI5
 70
     0
  9
$USERR1
 40
0.0
  9
$USERR2
 40
0.0
  9
$USERR3
 40
0.0
  9
$USERR4
 40
0.0
  9
$USERR5
 40
0.0
  9
$WORLDVIEW
 70
     1
  9
$SHADEDGE
 70
     3
  9
$SHADEDIF
 70
    70
  9
$TILEMODE
 70
     1
  9
$MAXACTVP
 70
    48
  9
$PINSBASE
 10
0.0
 20
0.0
 30
0.0
  9
$PLIMCHECK
 70
     0
  9
$PEXTMIN
 10
4.273573
 20
5.205245999999998
 30
0.0
  9
$PEXTMAX
 10
194.610095
 20
283.0697009999996
 30
0.0
  9
$PLIMMIN
 10
-5.873749
 20
-5.87375
  9
$PLIMMAX
 10
204.099579
 20
291.1369009999999
  9
$UNITMODE
 70
     0
  9
$VISRETAIN
 70
     1
  9
$PLINEGEN
 70
     0
  9
$PSLTSCALE
 70
     1
  9
$TREEDEPTH
 70
  3020
  9
$CMLSTYLE
  2
STANDARD
  9
$CMLJUST
 70
     0
  9
$CMLSCALE
 40
1.0
  9
$PROXYGRAPHICS
 70
     1
  9
$MEASUREMENT
 70
     0
  9
$CELWEIGHT
370
    -1
  9
$ENDCAPS
280
     0
  9
$JOINSTYLE
280
     0
  9
$LWDISPLAY
290
     0
  9
$INSUNITS
 70
     0
  9
$HYPERLINKBASE
  1

  9
$STYLESHEET
  1
monochrome.ctb
  9
$XEDIT
290
     1
  9
$CEPSNTYPE
380
     0
  9
$PSTYLEMODE
290
     1
  9
$FINGERPRINTGUID
  2

  9
$VERSIONGUID
  2
{D3B7FCB7-F7F1-4540-B4C6-6A349A6ADC1B}
  9
$EXTNAMES
290
     1
  9
$PSVPSCALE
 40
0.0
  9
$OLESTARTUP
290
     0
  0
ENDSEC
  0
SECTION
  2
CLASSES
  0
CLASS
  1
ACDBDICTIONARYWDFLT
  2
AcDbDictionaryWithDefault
  3
AutoCAD 2000
 90
        0
280
     0
281
     0
  0
CLASS
  1
ACDBPLACEHOLDER
  2
AcDbPlaceHolder
  3
AutoCAD 2000
 90
        0
280
     0
281
     0
  0
CLASS
  1
LAYOUT
  2
AcDbLayout
  3
AutoCAD 2000
 90
        0
280
     0
281
     0
  0
CLASS
  1
LONG_TRANSACTION
  2
AcDbLongTransaction
  3
AutoCAD 2000
 90
    32768
280
     0
281
     0
  0
CLASS
  1
LWPOLYLINE
  2
AcDbPolyline
  3
AutoCAD 2000
 90
    32768
280
     0
281
     1
  0
CLASS
  1
HATCH
  2
AcDbHatch
  3
AutoCAD 2000
 90
    32768
280
     0
281
     1
  0
CLASS
  1
XRECORD
  2
AcDbXrecord
  3
AutoCAD 2000
 90
    32768
280
     0
281
     0
  0
CLASS
  1
LONG_TRANSACTION
  2
AcDbLongTransaction
  3
AutoCAD 2000
 90
    32768
280
     0
281
     0
  0
CLASS
  1
LWPOLYLINE
  2
AcDbPolyline
  3
AutoCAD 2000
 90
    32768
280
     0
281
     1
  0
CLASS
  1
HATCH
  2
AcDbHatch
  3
AutoCAD 2000
 90
    32768
280
     0
281
     1
  0
CLASS
  1
XRECORD
  2
AcDbXrecord
  3
AutoCAD 2000
 90
    32768
280
     0
281
     0
  0
CLASS
  1
LONG_TRANSACTION
  2
AcDbLongTransaction
  3
AutoCAD 2000
 90
    32768
280
     0
281
     0
  0
CLASS
  1
LWPOLYLINE
  2
AcDbPolyline
  3
AutoCAD 2000
 90
    32768
280
     0
281
     1
  0
CLASS
  1
HATCH
  2
AcDbHatch
  3
AutoCAD 2000
 90
    32768
280
     0
281
     1
  0
CLASS
  1
XRECORD
  2
AcDbXrecord
  3
AutoCAD 2000
 90
    32768
280
     0
281
     0
  0
CLASS
  1
LONG_TRANSACTION
  2
AcDbLongTransaction
  3
AutoCAD 2000
 90
    32768
280
     0
281
     0
  0
CLASS
  1
LWPOLYLINE
  2
AcDbPolyline
  3
AutoCAD 2000
 90
    32768
280
     0
281
     1
  0
CLASS
  1
HATCH
  2
AcDbHatch
  3
AutoCAD 2000
 90
    32768
280
     0
281
     1
  0
CLASS
  1
XRECORD
  2
AcDbXrecord
  3
AutoCAD 2000
 90
    32768
280
     0
281
     0
  0
CLASS
  1
LONG_TRANSACTION
  2
AcDbLongTransaction
  3
AutoCAD 2000
 90
    32768
280
     0
281
     0
  0
CLASS
  1
LWPOLYLINE
  2
AcDbPolyline
  3
AutoCAD 2000
 90
    32768
280
     0
281
     1
  0
CLASS
  1
HATCH
  2
AcDbHatch
  3
AutoCAD 2000
 90
    32768
280
     0
281
     1
  0
CLASS
  1
XRECORD
  2
AcDbXrecord
  3
AutoCAD 2000
 90
    32768
280
     0
281
     0
  0
CLASS
  1
LONG_TRANSACTION
  2
AcDbLongTransaction
  3
AutoCAD 2000
 90
    32768
280
     0
281
     0
  0
CLASS
  1
LWPOLYLINE
  2
AcDbPolyline
  3
AutoCAD 2000
 90
    32768
280
     0
281
     1
  0
CLASS
  1
HATCH
  2
AcDbHatch
  3
AutoCAD 2000
 90
    32768
280
     0
281
     1
  0
CLASS
  1
XRECORD
  2
AcDbXrecord
  3
AutoCAD 2000
 90
    32768
280
     0
281
     0
  0
CLASS
  1
LONG_TRANSACTION
  2
AcDbLongTransaction
  3
AutoCAD 2000
 90
    32768
280
     0
281
     0
  0
CLASS
  1
LWPOLYLINE
  2
AcDbPolyline
  3
AutoCAD 2000
 90
    32768
280
     0
281
     1
  0
CLASS
  1
HATCH
  2
AcDbHatch
  3
AutoCAD 2000
 90
    32768
280
     0
281
     1
  0
CLASS
  1
XRECORD
  2
AcDbXrecord
  3
AutoCAD 2000
 90
    32768
280
     0
281
     0
  0
CLASS
  1
LONG_TRANSACTION
  2
AcDbLongTransaction
  3
AutoCAD 2000
 90
    32768
280
     0
281
     0
  0
CLASS
  1
LWPOLYLINE
  2
AcDbPolyline
  3
AutoCAD 2000
 90
    32768
280
     0
281
     1
  0
CLASS
  1
HATCH
  2
AcDbHatch
  3
AutoCAD 2000
 90
    32768
280
     0
281
     1
  0
CLASS
  1
XRECORD
  2
AcDbXrecord
  3
AutoCAD 2000
 90
    32768
280
     0
281
     0
  0
CLASS
  1
LONG_TRANSACTION
  2
AcDbLongTransaction
  3
AutoCAD 2000
 90
    32768
280
     0
281
     0
  0
CLASS
  1
LWPOLYLINE
  2
AcDbPolyline
  3
AutoCAD 2000
 90
    32768
280
     0
281
     1
  0
CLASS
  1
HATCH
  2
AcDbHatch
  3
AutoCAD 2000
 90
    32768
280
     0
281
     1
  0
CLASS
  1
XRECORD
  2
AcDbXrecord
  3
AutoCAD 2000
 90
    32768
280
     0
281
     0
  0
CLASS
  1
LONG_TRANSACTION
  2
AcDbLongTransaction
  3
AutoCAD 2000
 90
    32768
280
     0
281
     0
  0
CLASS
  1
LWPOLYLINE
  2
AcDbPolyline
  3
AutoCAD 2000
 90
    32768
280
     0
281
     1
  0
CLASS
  1
HATCH
  2
AcDbHatch
  3
AutoCAD 2000
 90
    32768
280
     0
281
     1
  0
CLASS
  1
XRECORD
  2
AcDbXrecord
  3
AutoCAD 2000
 90
    32768
280
     0
281
     0
  0
CLASS
  1
LONG_TRANSACTION
  2
AcDbLongTransaction
  3
AutoCAD 2000
 90
    32768
280
     0
281
     0
  0
CLASS
  1
LWPOLYLINE
  2
AcDbPolyline
  3
AutoCAD 2000
 90
    32768
280
     0
281
     1
  0
CLASS
  1
HATCH
  2
AcDbHatch
  3
AutoCAD 2000
 90
    32768
280
     0
281
     1
  0
CLASS
  1
XRECORD
  2
AcDbXrecord
  3
AutoCAD 2000
 90
    32768
280
     0
281
     0
  0
CLASS
  1
LONG_TRANSACTION
  2
AcDbLongTransaction
  3
AutoCAD 2000
 90
    32768
280
     0
281
     0
  0
CLASS
  1
LWPOLYLINE
  2
AcDbPolyline
  3
AutoCAD 2000
 90
    32768
280
     0
281
     1
  0
CLASS
  1
HATCH
  2
AcDbHatch
  3
AutoCAD 2000
 90
    32768
280
     0
281
     1
  0
CLASS
  1
XRECORD
  2
AcDbXrecord
  3
AutoCAD 2000
 90
    32768
280
     0
281
     0
  0
CLASS
  1
LONG_TRANSACTION
  2
AcDbLongTransaction
  3
AutoCAD 2000
 90
    32768
280
     0
281
     0
  0
CLASS
  1
LWPOLYLINE
  2
AcDbPolyline
  3
AutoCAD 2000
 90
    32768
280
     0
281
     1
  0
CLASS
  1
HATCH
  2
AcDbHatch
  3
AutoCAD 2000
 90
    32768
280
     0
281
     1
  0
CLASS
  1
XRECORD
  2
AcDbXrecord
  3
AutoCAD 2000
 90
    32768
280
     0
281
     0
  0
CLASS
  1
LONG_TRANSACTION
  2
AcDbLongTransaction
  3
AutoCAD 2000
 90
    32768
280
     0
281
     0
  0
CLASS
  1
LWPOLYLINE
  2
AcDbPolyline
  3
AutoCAD 2000
 90
    32768
280
     0
281
     1
  0
CLASS
  1
HATCH
  2
AcDbHatch
  3
AutoCAD 2000
 90
    32768
280
     0
281
     1
  0
CLASS
  1
XRECORD
  2
AcDbXrecord
  3
AutoCAD 2000
 90
    32768
280
     0
281
     0
  0
CLASS
  1
LONG_TRANSACTION
  2
AcDbLongTransaction
  3
AutoCAD 2000
 90
    32768
280
     0
281
     0
  0
CLASS
  1
LWPOLYLINE
  2
AcDbPolyline
  3
AutoCAD 2000
 90
    32768
280
     0
281
     1
  0
CLASS
  1
HATCH
  2
AcDbHatch
  3
AutoCAD 2000
 90
    32768
280
     0
281
     1
  0
CLASS
  1
XRECORD
  2
AcDbXrecord
  3
AutoCAD 2000
 90
    32768
280
     0
281
     0
  0
CLASS
  1
LONG_TRANSACTION
  2
AcDbLongTransaction
  3
AutoCAD 2000
 90
    32768
280
     0
281
     0
  0
CLASS
  1
LWPOLYLINE
  2
AcDbPolyline
  3
AutoCAD 2000
 90
    32768
280
     0
281
     1
  0
CLASS
  1
HATCH
  2
AcDbHatch
  3
AutoCAD 2000
 90
    32768
280
     0
281
     1
  0
CLASS
  1
XRECORD
  2
AcDbXrecord
  3
AutoCAD 2000
 90
    32768
280
     0
281
     0
  0
CLASS
  1
LONG_TRANSACTION
  2
AcDbLongTransaction
  3
AutoCAD 2000
 90
    32768
280
     0
281
     0
  0
CLASS
  1
LWPOLYLINE
  2
AcDbPolyline
  3
AutoCAD 2000
 90
    32768
280
     0
281
     1
  0
CLASS
  1
HATCH
  2
AcDbHatch
  3
AutoCAD 2000
 90
    32768
280
     0
281
     1
  0
CLASS
  1
XRECORD
  2
AcDbXrecord
  3
AutoCAD 2000
 90
    32768
280
     0
281
     0
  0
CLASS
  1
LONG_TRANSACTION
  2
AcDbLongTransaction
  3
AutoCAD 2000
 90
    32768
280
     0
281
     0
  0
CLASS
  1
LWPOLYLINE
  2
AcDbPolyline
  3
AutoCAD 2000
 90
    32768
280
     0
281
     1
  0
CLASS
  1
HATCH
  2
AcDbHatch
  3
AutoCAD 2000
 90
    32768
280
     0
281
     1
  0
CLASS
  1
XRECORD
  2
AcDbXrecord
  3
AutoCAD 2000
 90
    32768
280
     0
281
     0
  0
CLASS
  1
LONG_TRANSACTION
  2
AcDbLongTransaction
  3
AutoCAD 2000
 90
    32768
280
     0
281
     0
  0
CLASS
  1
LWPOLYLINE
  2
AcDbPolyline
  3
AutoCAD 2000
 90
    32768
280
     0
281
     1
  0
CLASS
  1
HATCH
  2
AcDbHatch
  3
AutoCAD 2000
 90
    32768
280
     0
281
     1
  0
CLASS
  1
XRECORD
  2
AcDbXrecord
  3
AutoCAD 2000
 90
    32768
280
     0
281
     0
  0
CLASS
  1
LONG_TRANSACTION
  2
AcDbLongTransaction
  3
AutoCAD 2000
 90
    32768
280
     0
281
     0
  0
CLASS
  1
LWPOLYLINE
  2
AcDbPolyline
  3
AutoCAD 2000
 90
    32768
280
     0
281
     1
  0
CLASS
  1
HATCH
  2
AcDbHatch
  3
AutoCAD 2000
 90
    32768
280
     0
281
     1
  0
CLASS
  1
XRECORD
  2
AcDbXrecord
  3
AutoCAD 2000
 90
    32768
280
     0
281
     0
  0
CLASS
  1
LONG_TRANSACTION
  2
AcDbLongTransaction
  3
AutoCAD 2000
 90
    32768
280
     0
281
     0
  0
CLASS
  1
LWPOLYLINE
  2
AcDbPolyline
  3
AutoCAD 2000
 90
    32768
280
     0
281
     1
  0
CLASS
  1
HATCH
  2
AcDbHatch
  3
AutoCAD 2000
 90
    32768
280
     0
281
     1
  0
CLASS
  1
XRECORD
  2
AcDbXrecord
  3
AutoCAD 2000
 90
    32768
280
     0
281
     0
  0
CLASS
  1
LONG_TRANSACTION
  2
AcDbLongTransaction
  3
AutoCAD 2000
 90
    32768
280
     0
281
     0
  0
CLASS
  1
LWPOLYLINE
  2
AcDbPolyline
  3
AutoCAD 2000
 90
    32768
280
     0
281
     1
  0
CLASS
  1
HATCH
  2
AcDbHatch
  3
AutoCAD 2000
 90
    32768
280
     0
281
     1
  0
CLASS
  1
XRECORD
  2
AcDbXrecord
  3
AutoCAD 2000
 90
    32768
280
     0
281
     0
  0
CLASS
  1
LONG_TRANSACTION
  2
AcDbLongTransaction
  3
AutoCAD 2000
 90
    32768
280
     0
281
     0
  0
CLASS
  1
LWPOLYLINE
  2
AcDbPolyline
  3
AutoCAD 2000
 90
    32768
280
     0
281
     1
  0
CLASS
  1
HATCH
  2
AcDbHatch
  3
AutoCAD 2000
 90
    32768
280
     0
281
     1
  0
CLASS
  1
XRECORD
  2
AcDbXrecord
  3
AutoCAD 2000
 90
    32768
280
     0
281
     0
  0
CLASS
  1
LONG_TRANSACTION
  2
AcDbLongTransaction
  3
AutoCAD 2000
 90
    32768
280
     0
281
     0
  0
CLASS
  1
LWPOLYLINE
  2
AcDbPolyline
  3
AutoCAD 2000
 90
    32768
280
     0
281
     1
  0
CLASS
  1
HATCH
  2
AcDbHatch
  3
AutoCAD 2000
 90
    32768
280
     0
281
     1
  0
CLASS
  1
XRECORD
  2
AcDbXrecord
  3
AutoCAD 2000
 90
    32768
280
     0
281
     0
  0
CLASS
  1
LONG_TRANSACTION
  2
AcDbLongTransaction
  3
AutoCAD 2000
 90
    32768
280
     0
281
     0
  0
CLASS
  1
LWPOLYLINE
  2
AcDbPolyline
  3
AutoCAD 2000
 90
    32768
280
     0
281
     1
  0
CLASS
  1
HATCH
  2
AcDbHatch
  3
AutoCAD 2000
 90
    32768
280
     0
281
     1
  0
CLASS
  1
XRECORD
  2
AcDbXrecord
  3
AutoCAD 2000
 90
    32768
280
     0
281
     0
  0
CLASS
  1
LONG_TRANSACTION
  2
AcDbLongTransaction
  3
AutoCAD 2000
 90
    32768
280
     0
281
     0
  0
CLASS
  1
LWPOLYLINE
  2
AcDbPolyline
  3
AutoCAD 2000
 90
    32768
280
     0
281
     1
  0
CLASS
  1
HATCH
  2
AcDbHatch
  3
AutoCAD 2000
 90
    32768
280
     0
281
     1
  0
CLASS
  1
XRECORD
  2
AcDbXrecord
  3
AutoCAD 2000
 90
    32768
280
     0
281
     0
  0
CLASS
  1
LONG_TRANSACTION
  2
AcDbLongTransaction
  3
AutoCAD 2000
 90
    32768
280
     0
281
     0
  0
CLASS
  1
LWPOLYLINE
  2
AcDbPolyline
  3
AutoCAD 2000
 90
    32768
280
     0
281
     1
  0
CLASS
  1
HATCH
  2
AcDbHatch
  3
AutoCAD 2000
 90
    32768
280
     0
281
     1
  0
CLASS
  1
XRECORD
  2
AcDbXrecord
  3
AutoCAD 2000
 90
    32768
280
     0
281
     0
  0
CLASS
  1
LONG_TRANSACTION
  2
AcDbLongTransaction
  3
AutoCAD 2000
 90
    32768
280
     0
281
     0
  0
CLASS
  1
LWPOLYLINE
  2
AcDbPolyline
  3
AutoCAD 2000
 90
    32768
280
     0
281
     1
  0
CLASS
  1
HATCH
  2
AcDbHatch
  3
AutoCAD 2000
 90
    32768
280
     0
281
     1
  0
CLASS
  1
XRECORD
  2
AcDbXrecord
  3
AutoCAD 2000
 90
    32768
280
     0
281
     0
  0
CLASS
  1
LONG_TRANSACTION
  2
AcDbLongTransaction
  3
AutoCAD 2000
 90
    32768
280
     0
281
     0
  0
CLASS
  1
LWPOLYLINE
  2
AcDbPolyline
  3
AutoCAD 2000
 90
    32768
280
     0
281
     1
  0
CLASS
  1
HATCH
  2
AcDbHatch
  3
AutoCAD 2000
 90
    32768
280
     0
281
     1
  0
CLASS
  1
XRECORD
  2
AcDbXrecord
  3
AutoCAD 2000
 90
    32768
280
     0
281
     0
  0
CLASS
  1
LONG_TRANSACTION
  2
AcDbLongTransaction
  3
AutoCAD 2000
 90
    32768
280
     0
281
     0
  0
CLASS
  1
LWPOLYLINE
  2
AcDbPolyline
  3
AutoCAD 2000
 90
    32768
280
     0
281
     1
  0
CLASS
  1
HATCH
  2
AcDbHatch
  3
AutoCAD 2000
 90
    32768
280
     0
281
     1
  0
CLASS
  1
XRECORD
  2
AcDbXrecord
  3
AutoCAD 2000
 90
    32768
280
     0
281
     0
  0
CLASS
  1
LONG_TRANSACTION
  2
AcDbLongTransaction
  3
AutoCAD 2000
 90
    32768
280
     0
281
     0
  0
CLASS
  1
LWPOLYLINE
  2
AcDbPolyline
  3
AutoCAD 2000
 90
    32768
280
     0
281
     1
  0
CLASS
  1
HATCH
  2
AcDbHatch
  3
AutoCAD 2000
 90
    32768
280
     0
281
     1
  0
CLASS
  1
XRECORD
  2
AcDbXrecord
  3
AutoCAD 2000
 90
    32768
280
     0
281
     0
  0
CLASS
  1
LONG_TRANSACTION
  2
AcDbLongTransaction
  3
AutoCAD 2000
 90
    32768
280
     0
281
     0
  0
CLASS
  1
LWPOLYLINE
  2
AcDbPolyline
  3
AutoCAD 2000
 90
    32768
280
     0
281
     1
  0
CLASS
  1
HATCH
  2
AcDbHatch
  3
AutoCAD 2000
 90
    32768
280
     0
281
     1
  0
CLASS
  1
XRECORD
  2
AcDbXrecord
  3
AutoCAD 2000
 90
    32768
280
     0
281
     0
  0
CLASS
  1
LONG_TRANSACTION
  2
AcDbLongTransaction
  3
AutoCAD 2000
 90
    32768
280
     0
281
     0
  0
CLASS
  1
LWPOLYLINE
  2
AcDbPolyline
  3
AutoCAD 2000
 90
    32768
280
     0
281
     1
  0
CLASS
  1
HATCH
  2
AcDbHatch
  3
AutoCAD 2000
 90
    32768
280
     0
281
     1
  0
CLASS
  1
XRECORD
  2
AcDbXrecord
  3
AutoCAD 2000
 90
    32768
280
     0
281
     0
  0
CLASS
  1
DICTIONARYVAR
  2
AcDbDictionaryVar
  3
AutoCAD 2000
 90
        0
280
     0
281
     0
  0
CLASS
  1
LONG_TRANSACTION
  2
AcDbLongTransaction
  3
AutoCAD 2000
 90
    32768
280
     0
281
     0
  0
CLASS
  1
LWPOLYLINE
  2
AcDbPolyline
  3
AutoCAD 2000
 90
    32768
280
     0
281
     1
  0
CLASS
  1
HATCH
  2
AcDbHatch
  3
AutoCAD 2000
 90
    32768
280
     0
281
     1
  0
CLASS
  1
XRECORD
  2
AcDbXrecord
  3
AutoCAD 2000
 90
    32768
280
     0
281
     0
  0
CLASS
  1
LONG_TRANSACTION
  2
AcDbLongTransaction
  3
AutoCAD 2000
 90
    32768
280
     0
281
     0
  0
CLASS
  1
LWPOLYLINE
  2
AcDbPolyline
  3
AutoCAD 2000
 90
    32768
280
     0
281
     1
  0
CLASS
  1
HATCH
  2
AcDbHatch
  3
AutoCAD 2000
 90
    32768
280
     0
281
     1
  0
CLASS
  1
XRECORD
  2
AcDbXrecord
  3
AutoCAD 2000
 90
    32768
280
     0
281
     0
  0
CLASS
  1
LONG_TRANSACTION
  2
AcDbLongTransaction
  3
AutoCAD 2000
 90
    32768
280
     0
281
     0
  0
CLASS
  1
LWPOLYLINE
  2
AcDbPolyline
  3
AutoCAD 2000
 90
    32768
280
     0
281
     1
  0
CLASS
  1
HATCH
  2
AcDbHatch
  3
AutoCAD 2000
 90
    32768
280
     0
281
     1
  0
CLASS
  1
XRECORD
  2
AcDbXrecord
  3
AutoCAD 2000
 90
    32768
280
     0
281
     0
  0
CLASS
  1
LONG_TRANSACTION
  2
AcDbLongTransaction
  3
AutoCAD 2000
 90
    32768
280
     0
281
     0
  0
CLASS
  1
LWPOLYLINE
  2
AcDbPolyline
  3
AutoCAD 2000
 90
    32768
280
     0
281
     1
  0
CLASS
  1
HATCH
  2
AcDbHatch
  3
AutoCAD 2000
 90
    32768
280
     0
281
     1
  0
CLASS
  1
XRECORD
  2
AcDbXrecord
  3
AutoCAD 2000
 90
    32768
280
     0
281
     0
  0
CLASS
  1
LONG_TRANSACTION
  2
AcDbLongTransaction
  3
AutoCAD 2000
 90
    32768
280
     0
281
     0
  0
CLASS
  1
LWPOLYLINE
  2
AcDbPolyline
  3
AutoCAD 2000
 90
    32768
280
     0
281
     1
  0
CLASS
  1
HATCH
  2
AcDbHatch
  3
AutoCAD 2000
 90
    32768
280
     0
281
     1
  0
CLASS
  1
XRECORD
  2
AcDbXrecord
  3
AutoCAD 2000
 90
    32768
280
     0
281
     0
  0
CLASS
  1
LONG_TRANSACTION
  2
AcDbLongTransaction
  3
AutoCAD 2000
 90
    32768
280
     0
281
     0
  0
CLASS
  1
LWPOLYLINE
  2
AcDbPolyline
  3
AutoCAD 2000
 90
    32768
280
     0
281
     1
  0
CLASS
  1
HATCH
  2
AcDbHatch
  3
AutoCAD 2000
 90
    32768
280
     0
281
     1
  0
CLASS
  1
XRECORD
  2
AcDbXrecord
  3
AutoCAD 2000
 90
    32768
280
     0
281
     0
  0
CLASS
  1
LONG_TRANSACTION
  2
AcDbLongTransaction
  3
AutoCAD 2000
 90
    32768
280
     0
281
     0
  0
CLASS
  1
LWPOLYLINE
  2
AcDbPolyline
  3
AutoCAD 2000
 90
    32768
280
     0
281
     1
  0
CLASS
  1
HATCH
  2
AcDbHatch
  3
AutoCAD 2000
 90
    32768
280
     0
281
     1
  0
CLASS
  1
XRECORD
  2
AcDbXrecord
  3
AutoCAD 2000
 90
    32768
280
     0
281
     0
  0
CLASS
  1
LONG_TRANSACTION
  2
AcDbLongTransaction
  3
AutoCAD 2000
 90
    32768
280
     0
281
     0
  0
CLASS
  1
LWPOLYLINE
  2
AcDbPolyline
  3
AutoCAD 2000
 90
    32768
280
     0
281
     1
  0
CLASS
  1
HATCH
  2
AcDbHatch
  3
AutoCAD 2000
 90
    32768
280
     0
281
     1
  0
CLASS
  1
XRECORD
  2
AcDbXrecord
  3
AutoCAD 2000
 90
    32768
280
     0
281
     0
  0
CLASS
  1
LONG_TRANSACTION
  2
AcDbLongTransaction
  3
AutoCAD 2000
 90
    32768
280
     0
281
     0
  0
CLASS
  1
LWPOLYLINE
  2
AcDbPolyline
  3
AutoCAD 2000
 90
    32768
280
     0
281
     1
  0
CLASS
  1
HATCH
  2
AcDbHatch
  3
AutoCAD 2000
 90
    32768
280
     0
281
     1
  0
CLASS
  1
XRECORD
  2
AcDbXrecord
  3
AutoCAD 2000
 90
    32768
280
     0
281
     0
  0
CLASS
  1
LONG_TRANSACTION
  2
AcDbLongTransaction
  3
AutoCAD 2000
 90
    32768
280
     0
281
     0
  0
CLASS
  1
LWPOLYLINE
  2
AcDbPolyline
  3
AutoCAD 2000
 90
    32768
280
     0
281
     1
  0
CLASS
  1
HATCH
  2
AcDbHatch
  3
AutoCAD 2000
 90
    32768
280
     0
281
     1
  0
CLASS
  1
XRECORD
  2
AcDbXrecord
  3
AutoCAD 2000
 90
    32768
280
     0
281
     0
  0
CLASS
  1
LONG_TRANSACTION
  2
AcDbLongTransaction
  3
AutoCAD 2000
 90
    32768
280
     0
281
     0
  0
CLASS
  1
LWPOLYLINE
  2
AcDbPolyline
  3
AutoCAD 2000
 90
    32768
280
     0
281
     1
  0
CLASS
  1
HATCH
  2
AcDbHatch
  3
AutoCAD 2000
 90
    32768
280
     0
281
     1
  0
CLASS
  1
XRECORD
  2
AcDbXrecord
  3
AutoCAD 2000
 90
    32768
280
     0
281
     0
  0
CLASS
  1
LONG_TRANSACTION
  2
AcDbLongTransaction
  3
AutoCAD 2000
 90
    32768
280
     0
281
     0
  0
CLASS
  1
LWPOLYLINE
  2
AcDbPolyline
  3
AutoCAD 2000
 90
    32768
280
     0
281
     1
  0
CLASS
  1
HATCH
  2
AcDbHatch
  3
AutoCAD 2000
 90
    32768
280
     0
281
     1
  0
CLASS
  1
XRECORD
  2
AcDbXrecord
  3
AutoCAD 2000
 90
    32768
280
     0
281
     0
  0
CLASS
  1
LONG_TRANSACTION
  2
AcDbLongTransaction
  3
AutoCAD 2000
 90
    32768
280
     0
281
     0
  0
CLASS
  1
LWPOLYLINE
  2
AcDbPolyline
  3
AutoCAD 2000
 90
    32768
280
     0
281
     1
  0
CLASS
  1
HATCH
  2
AcDbHatch
  3
AutoCAD 2000
 90
    32768
280
     0
281
     1
  0
CLASS
  1
XRECORD
  2
AcDbXrecord
  3
AutoCAD 2000
 90
    32768
280
     0
281
     0
  0
CLASS
  1
LONG_TRANSACTION
  2
AcDbLongTransaction
  3
AutoCAD 2000
 90
    32768
280
     0
281
     0
  0
CLASS
  1
LWPOLYLINE
  2
AcDbPolyline
  3
AutoCAD 2000
 90
    32768
280
     0
281
     1
  0
CLASS
  1
HATCH
  2
AcDbHatch
  3
AutoCAD 2000
 90
    32768
280
     0
281
     1
  0
CLASS
  1
XRECORD
  2
AcDbXrecord
  3
AutoCAD 2000
 90
    32768
280
     0
281
     0
  0
CLASS
  1
LONG_TRANSACTION
  2
AcDbLongTransaction
  3
AutoCAD 2000
 90
    32768
280
     0
281
     0
  0
CLASS
  1
LWPOLYLINE
  2
AcDbPolyline
  3
AutoCAD 2000
 90
    32768
280
     0
281
     1
  0
CLASS
  1
HATCH
  2
AcDbHatch
  3
AutoCAD 2000
 90
    32768
280
     0
281
     1
  0
CLASS
  1
XRECORD
  2
AcDbXrecord
  3
AutoCAD 2000
 90
    32768
280
     0
281
     0
  0
ENDSEC
  0
SECTION
  2
TABLES
  0
TABLE
  2
VPORT
  5
8
330
0
100
AcDbSymbolTable
 70
     3
  0
VPORT
  5
CD63
330
8
100
AcDbSymbolTableRecord
100
AcDbViewportTableRecord
  2
*Active
 70
     0
 10
0.0
 20
0.0
 11
1.0
 21
1.0
 12
198.9298294586494
 22
-117.3290876651606
 13
0.0
 23
0.0
 14
1.0
 24
1.0
 15
10.0
 25
10.0
 16
0.0
 26
0.0
 36
1.0
 17
0.0
 27
0.0
 37
0.0
 40
1118.469623341764
 41
1.250656167979002
 42
50.0
 43
0.0
 44
0.0
 50
0.0
 51
0.0
 71
     0
 72
   100
 73
     1
 74
     1
 75
     0
 76
     0
 77
     0
 78
     0
281
     0
 65
     1
110
0.0
120
0.0
130
0.0
111
1.0
121
0.0
131
0.0
112
0.0
122
1.0
132
0.0
 79
     0
146
0.0
  0
ENDTAB
  0
TABLE
  2
LTYPE
  5
5
330
0
100
AcDbSymbolTable
 70
     6
  0
LTYPE
  5
13
330
5
100
AcDbSymbolTableRecord
100
AcDbLinetypeTableRecord
  2
BYBLOCK
 70
     0
  3

 72
    65
 73
     0
 40
0.0
  0
LTYPE
  5
14
330
5
100
AcDbSymbolTableRecord
100
AcDbLinetypeTableRecord
  2
BYLAYER
 70
     0
  3

 72
    65
 73
     0
 40
0.0
  0
LTYPE
  5
15
330
5
100
AcDbSymbolTableRecord
100
AcDbLinetypeTableRecord
  2
CONTINUOUS
 70
     0
  3
Solid line
 72
    65
 73
     0
 40
0.0
  0
LTYPE
  5
22
330
5
100
AcDbSymbolTableRecord
100
AcDbLinetypeTableRecord
  2
CONTINOUS
 70
     0
  3
Solid line
 72
    65
 73
     0
 40
0.0
  0
LTYPE
  5
23
330
5
100
AcDbSymbolTableRecord
100
AcDbLinetypeTableRecord
  2
DASHED
 70
     0
  3
__ __ __ __ __ __ __ __ __ __ __ __ __ __ __
 72
    65
 73
     2
 40
0.75
 49
0.5
 74
     0
 49
-0.25
 74
     0
  0
LTYPE
  5
24
330
5
100
AcDbSymbolTableRecord
100
AcDbLinetypeTableRecord
  2
DASHDOT
 70
     0
  3
__ . __ . __ . __ . __ . __ . __ . __ . __ . __
 72
    65
 73
     4
 40
1.0
 49
0.5
 74
     0
 49
-0.25
 74
     0
 49
0.0
 74
     0
 49
-0.25
 74
     0
  0
LTYPE
  5
4C47
330
5
100
AcDbSymbolTableRecord
100
AcDbLinetypeTableRecord
  2
DIVIDE
 70
     0
  3
Divide ____ . . ____ . . ____ . . ____ . . ____
 72
    65
 73
     6
 40
1.25
 49
0.5
 74
     0
 49
-0.25
 74
     0
 49
0.0
 74
     0
 49
-0.25
 74
     0
 49
0.0
 74
     0
 49
-0.25
 74
     0
  0
LTYPE
  5
CAB8
330
5
100
AcDbSymbolTableRecord
100
AcDbLinetypeTableRecord
  2
PHANTOM
 70
     0
  3
____ _ _ ____ _ _ _____ _ _ ____
 72
    65
 73
     6
 40
2.5
 49
1.25
 74
     0
 49
-0.25
 74
     0
 49
0.25
 74
     0
 49
-0.25
 74
     0
 49
0.25
 74
     0
 49
-0.25
 74
     0
  0
ENDTAB
  0
TABLE
  2
LAYER
  5
2
330
0
100
AcDbSymbolTable
 70
    12
  0
LAYER
  5
10
330
2
100
AcDbSymbolTableRecord
100
AcDbLayerTableRecord
  2
0
 70
     0
 62
     7
  6
CONTINOUS
370
    -3
390
F
  0
LAYER
  5
2F
330
2
100
AcDbSymbolTableRecord
100
AcDbLayerTableRecord
  2
10
 70
     0
 62
     4
  6
CONTINOUS
370
    -3
390
F
  0
LAYER
  5
31
330
2
100
AcDbSymbolTableRecord
100
AcDbLayerTableRecord
  2
12
 70
     0
 62
     3
  6
CONTINOUS
370
    -3
390
F
  0
LAYER
  5
35
330
2
100
AcDbSymbolTableRecord
100
AcDbLayerTableRecord
  2
16
 70
     0
 62
     6
  6
DASHDOT
370
    -3
390
F
  0
LAYER
  5
38
330
2
100
AcDbSymbolTableRecord
100
AcDbLayerTableRecord
  2
19
 70
     0
 62
     7
  6
CONTINOUS
370
    -3
390
F
  0
LAYER
  5
3D
330
2
100
AcDbSymbolTableRecord
100
AcDbLayerTableRecord
  2
24
 70
     0
 62
     2
  6
CONTINOUS
370
    -3
390
F
  0
LAYER
  5
3A2
330
2
100
AcDbSymbolTableRecord
100
AcDbLayerTableRecord
  2
30
 70
     0
 62
     9
  6
CONTINUOUS
370
    -3
390
F
  0
LAYER
  5
3A4
330
2
100
AcDbSymbolTableRecord
100
AcDbLayerTableRecord
  2
DEFPOINTS
 70
     0
 62
     7
  6
CONTINUOUS
290
     0
370
    -3
390
F
  0
LAYER
  5
3BBA
330
2
100
AcDbSymbolTableRecord
100
AcDbLayerTableRecord
  2
18
 70
     0
 62
     5
  6
DIVIDE
370
    -3
390
F
  0
LAYER
  5
67A8
330
2
100
AcDbSymbolTableRecord
100
AcDbLayerTableRecord
  2
11
 70
     0
 62
     1
  6
CONTINOUS
370
    -3
390
F
  0
LAYER
  5
7837
330
2
100
AcDbSymbolTableRecord
100
AcDbLayerTableRecord
  2
17
 70
     0
 62
     2
  6
DASHDOT
370
    -3
390
F
  0
LAYER
  5
7BC8
330
2
100
AcDbSymbolTableRecord
100
AcDbLayerTableRecord
  2
1
 70
     0
 62
     7
  6
CONTINUOUS
370
    -3
390
F
  0
ENDTAB
  0
TABLE
  2
STYLE
  5
3
330
0
100
AcDbSymbolTable
 70
     3
  0
STYLE
  5
11
330
3
100
AcDbSymbolTableRecord
100
AcDbTextStyleTableRecord
  2
STANDARD
 70
     0
 40
0.0
 41
1.0
 50
0.0
 71
     0
 42
2.0
  3
txt.shx
  4
bigfont.shx
  0
STYLE
  5
42
330
3
100
AcDbSymbolTableRecord
100
AcDbTextStyleTableRecord
  2
STANDARD1
 70
     0
 40
0.0
 41
1.0
 50
0.0
 71
     0
 42
5.0
  3
MONOTXT
  4
BIGFONT
  0
STYLE
  5
CAB9
330
3
100
AcDbSymbolTableRecord
100
AcDbTextStyleTableRecord
  2
blockfont
 70
     0
 40
0.0
 41
1.0
 50
0.0
 71
     0
 42
0.2
  3
simplex.shx
  4
bigfont
  0
ENDTAB
  0
TABLE
  2
VIEW
  5
6
330
0
100
AcDbSymbolTable
 70
     3
  0
VIEW
  5
230C
330
6
100
AcDbSymbolTableRecord
100
AcDbViewTableRecord
  2
OLE1
 70
     0
 40
148.912488
 10
429.497628
 20
2.560627
 41
103.145806
 11
0.0
 21
0.0
 31
1.0
 12
0.0
 22
0.0
 32
0.0
 42
50.0
 43
0.0
 44
0.0
 50
0.0
 71
     0
281
     0
 72
     0
  0
VIEW
  5
230E
330
6
100
AcDbSymbolTableRecord
100
AcDbViewTableRecord
  2
OLE2
 70
     0
 40
170.778692
 10
322.66497
 20
-5.978304
 41
102.467215
 11
0.0
 21
0.0
 31
1.0
 12
0.0
 22
0.0
 32
0.0
 42
50.0
 43
0.0
 44
0.0
 50
0.0
 71
     0
281
     0
 72
     0
  0
VIEW
  5
23AA
330
6
100
AcDbSymbolTableRecord
100
AcDbViewTableRecord
  2
OLE3
 70
     0
 40
591.7897389999998
 10
84.79698199999999
 20
-46.09335999999998
 41
388.792096
 11
0.0
 21
0.0
 31
1.0
 12
0.0
 22
0.0
 32
0.0
 42
50.0
 43
0.0
 44
0.0
 50
0.0
 71
     0
281
     0
 72
     0
  0
ENDTAB
  0
TABLE
  2
UCS
  5
7
330
0
100
AcDbSymbolTable
 70
     0
  0
ENDTAB
  0
TABLE
  2
APPID
  5
9
330
0
100
AcDbSymbolTable
 70
     2
  0
APPID
  5
12
330
9
100
AcDbSymbolTableRecord
100
AcDbRegAppTableRecord
  2
ACAD
 70
     0
  0
APPID
  5
ECD
330
9
100
AcDbSymbolTableRecord
100
AcDbRegAppTableRecord
  2
CONTENTBLOCKICON
 70
     0
  0
ENDTAB
  0
TABLE
  2
DIMSTYLE
  5
A
330
0
100
AcDbSymbolTable
 70
     2
100
AcDbDimStyleTable
 71
     2
340
175
340
BCE4
  0
DIMSTYLE
105
175
330
A
100
AcDbSymbolTableRecord
100
AcDbDimStyleTableRecord
  2
STANDARD
 70
     0
 41
2.0
 42
1.0
 43
0.5
 44
0.5
 73
     0
 77
     3
 78
    12
140
4.0
147
1.0
271
     1
272
     1
340
11
341
3B2
342
3B2
  0
DIMSTYLE
105
BCE4
102
{ACAD_REACTORS
330
B9F6
330
B9F5
330
B797
330
B671
330
B273
330
B272
330
B271
330
B270
330
B26F
330
A8DB
330
A8DA
330
9F25
330
97EB
330
97E1
330
97DC
330
97BB
330
97B3
330
978B
330
9785
330
9774
330
975C
330
975B
330
975A
330
9759
330
9758
330
9662
330
965B
330
965A
330
9659
330
9658
330
9657
330
9656
330
95B0
330
95A1
330
95A0
330
959E
330
959D
330
959C
330
959B
330
959A
330
9599
330
9581
330
C8D0
330
CA1A
330
CA1B
330
CA1C
330
CA1D
330
CA84
102
}
330
A
100
AcDbSymbolTableRecord
100
AcDbDimStyleTableRecord
  2
STANDARD1
 70
     0
 41
2.0
 42
3.0
 43
0.5
 44
0.5
 73
     0
 77
     3
 78
    12
140
6.0
147
3.0
271
     1
272
     1
289
     2
340
11
341
3B2
342
3B2
  0
ENDTAB
  0
TABLE
  2
BLOCK_RECORD
  5
1
330
0
100
AcDbSymbolTable
 70
    73
  0
BLOCK_RECORD
  5
1E
102
{ACAD_XDICTIONARY
360
178
102
}
330
1
100
AcDbSymbolTableRecord
100
AcDbBlockTableRecord
  2
*MODEL_SPACE
340
904E
  0
BLOCK_RECORD
  5
1A
102
{ACAD_XDICTIONARY
360
17A
102
}
330
1
100
AcDbSymbolTableRecord
100
AcDbBlockTableRecord
  2
*PAPER_SPACE
340
904F
  0
BLOCK_RECORD
  5
3B2
330
1
100
AcDbSymbolTableRecord
100
AcDbBlockTableRecord
  2
_OPEN
340
0
102
{BLKREFS
331
C5AA
331
C5AB
331
C5B3
331
C5B4
331
C5C7
331
C5C8
331
C5D0
331
C5D1
331
C5D9
331
C5DA
331
C5E2
331
C5E3
331
C5F4
331
C5F5
331
C5FD
331
C5FE
331
C606
331
C607
331
C60F
331
C610
331
C618
331
C619
331
C621
331
C622
331
C631
331
C63A
331
C63B
331
C64D
331
C64E
331
C660
331
C661
331
C668
331
C671
331
C672
331
C68E
331
C68F
331
C697
331
C698
331
C6A0
331
C6A1
331
C6A9
331
C6AA
331
C6B2
331
C6B3
331
C6BB
331
C6BC
331
C6C4
331
C6C5
331
C6CD
331
C6CE
331
C6D6
331
C6D7
331
C6E2
331
C6E3
331
C6EA
331
C6EB
331
C6F3
331
C6F4
331
C6FC
331
C6FD
331
C710
331
C711
331
C719
331
C71A
331
C722
331
C723
331
C72B
331
C72C
331
C734
331
C735
331
C73D
331
C73E
331
C746
331
C747
331
C74F
331
C772
331
C773
331
C7A9
331
C7AA
331
C7B1
331
C7B2
331
C7C6
331
C7C7
331
C834
331
C835
331
C864
331
C865
331
C8EC
331
C8ED
331
C8F5
331
C8F6
331
C905
331
C906
331
C9C5
331
C9C6
331
C9AD
331
C9AE
331
C9D1
331
C9D2
331
C9B9
331
C9BA
331
C9FE
331
C9FF
331
C9E6
331
C9E7
331
CA0A
331
CA0B
331
C9F2
331
C9F3
331
CA22
331
CA23
331
CA2E
331
CA2F
331
CA3A
331
CA3B
331
CA46
331
CA47
331
CA51
331
CA52
331
CA5A
331
CA5B
331
CA63
331
CA64
331
CA6C
331
CA6D
331
CA75
331
CA76
331
CA7E
331
CA7F
331
CA89
331
CA8A
331
CA94
331
CA95
331
CCDF
331
CCE0
331
CCEB
331
CCEC
331
CCF7
331
CCF8
331
CD03
331
CD04
331
CD0C
331
CD0D
331
CD15
331
CD16
331
CD1F
331
CD20
331
CD28
331
CD29
331
CD31
331
CD32
331
CD3C
331
CD3D
331
CD48
331
CD49
331
CD52
331
CD53
331
CD5C
331
CD5D
102
}
  0
BLOCK_RECORD
  5
9829
330
1
100
AcDbSymbolTableRecord
100
AcDbBlockTableRecord
  2
*D1
340
0
  0
BLOCK_RECORD
  5
9836
330
1
100
AcDbSymbolTableRecord
100
AcDbBlockTableRecord
  2
*D2
340
0
  0
BLOCK_RECORD
  5
9844
330
1
100
AcDbSymbolTableRecord
100
AcDbBlockTableRecord
  2
*D3
340
0
  0
BLOCK_RECORD
  5
9851
330
1
100
AcDbSymbolTableRecord
100
AcDbBlockTableRecord
  2
*D4
340
0
  0
BLOCK_RECORD
  5
985E
330
1
100
AcDbSymbolTableRecord
100
AcDbBlockTableRecord
  2
*D5
340
0
  0
BLOCK_RECORD
  5
986B
330
1
100
AcDbSymbolTableRecord
100
AcDbBlockTableRecord
  2
*D6
340
0
  0
BLOCK_RECORD
  5
9878
330
1
100
AcDbSymbolTableRecord
100
AcDbBlockTableRecord
  2
*D7
340
0
  0
BLOCK_RECORD
  5
98AA
330
1
100
AcDbSymbolTableRecord
100
AcDbBlockTableRecord
  2
*D8
340
0
  0
BLOCK_RECORD
  5
98B6
330
1
100
AcDbSymbolTableRecord
100
AcDbBlockTableRecord
  2
*D9
340
0
  0
BLOCK_RECORD
  5
98C2
330
1
100
AcDbSymbolTableRecord
100
AcDbBlockTableRecord
  2
*D10
340
0
  0
BLOCK_RECORD
  5
98CE
330
1
100
AcDbSymbolTableRecord
100
AcDbBlockTableRecord
  2
*D11
340
0
  0
BLOCK_RECORD
  5
98DA
330
1
100
AcDbSymbolTableRecord
100
AcDbBlockTableRecord
  2
*D12
340
0
  0
BLOCK_RECORD
  5
98F3
330
1
100
AcDbSymbolTableRecord
100
AcDbBlockTableRecord
  2
*D13
340
0
  0
BLOCK_RECORD
  5
991A
330
1
100
AcDbSymbolTableRecord
100
AcDbBlockTableRecord
  2
*D14
340
0
  0
BLOCK_RECORD
  5
9926
330
1
100
AcDbSymbolTableRecord
100
AcDbBlockTableRecord
  2
*D15
340
0
  0
BLOCK_RECORD
  5
993E
330
1
100
AcDbSymbolTableRecord
100
AcDbBlockTableRecord
  2
*D16
340
0
  0
BLOCK_RECORD
  5
994A
330
1
100
AcDbSymbolTableRecord
100
AcDbBlockTableRecord
  2
*D17
340
0
  0
BLOCK_RECORD
  5
9982
330
1
100
AcDbSymbolTableRecord
100
AcDbBlockTableRecord
  2
*D18
340
0
  0
BLOCK_RECORD
  5
998E
330
1
100
AcDbSymbolTableRecord
100
AcDbBlockTableRecord
  2
*D19
340
0
  0
BLOCK_RECORD
  5
999B
330
1
100
AcDbSymbolTableRecord
100
AcDbBlockTableRecord
  2
*D20
340
0
  0
BLOCK_RECORD
  5
99CC
330
1
100
AcDbSymbolTableRecord
100
AcDbBlockTableRecord
  2
*D21
340
0
  0
BLOCK_RECORD
  5
99F0
330
1
100
AcDbSymbolTableRecord
100
AcDbBlockTableRecord
  2
*D22
340
0
  0
BLOCK_RECORD
  5
99FC
330
1
100
AcDbSymbolTableRecord
100
AcDbBlockTableRecord
  2
*D23
340
0
  0
BLOCK_RECORD
  5
9A08
330
1
100
AcDbSymbolTableRecord
100
AcDbBlockTableRecord
  2
*D24
340
0
  0
BLOCK_RECORD
  5
9A14
330
1
100
AcDbSymbolTableRecord
100
AcDbBlockTableRecord
  2
*D25
340
0
  0
BLOCK_RECORD
  5
9A20
330
1
100
AcDbSymbolTableRecord
100
AcDbBlockTableRecord
  2
*D26
340
0
  0
BLOCK_RECORD
  5
9A2C
330
1
100
AcDbSymbolTableRecord
100
AcDbBlockTableRecord
  2
*D27
340
0
  0
BLOCK_RECORD
  5
9A45
330
1
100
AcDbSymbolTableRecord
100
AcDbBlockTableRecord
  2
*D28
340
0
  0
BLOCK_RECORD
  5
9A53
330
1
100
AcDbSymbolTableRecord
100
AcDbBlockTableRecord
  2
*D29
340
0
  0
BLOCK_RECORD
  5
9A6B
330
1
100
AcDbSymbolTableRecord
100
AcDbBlockTableRecord
  2
*D30
340
0
  0
BLOCK_RECORD
  5
9F26
330
1
100
AcDbSymbolTableRecord
100
AcDbBlockTableRecord
  2
*D31
340
0
  0
BLOCK_RECORD
  5
A8DC
330
1
100
AcDbSymbolTableRecord
100
AcDbBlockTableRecord
  2
*D32
340
0
  0
BLOCK_RECORD
  5
A8E7
330
1
100
AcDbSymbolTableRecord
100
AcDbBlockTableRecord
  2
*D33
340
0
  0
BLOCK_RECORD
  5
B274
330
1
100
AcDbSymbolTableRecord
100
AcDbBlockTableRecord
  2
*D34
340
0
  0
BLOCK_RECORD
  5
B280
330
1
100
AcDbSymbolTableRecord
100
AcDbBlockTableRecord
  2
*D35
340
0
  0
BLOCK_RECORD
  5
B28C
330
1
100
AcDbSymbolTableRecord
100
AcDbBlockTableRecord
  2
*D36
340
0
  0
BLOCK_RECORD
  5
B298
330
1
100
AcDbSymbolTableRecord
100
AcDbBlockTableRecord
  2
*D37
340
0
  0
BLOCK_RECORD
  5
B2A4
330
1
100
AcDbSymbolTableRecord
100
AcDbBlockTableRecord
  2
*D38
340
0
  0
BLOCK_RECORD
  5
B677
330
1
100
AcDbSymbolTableRecord
100
AcDbBlockTableRecord
  2
*D39
340
0
  0
BLOCK_RECORD
  5
B683
330
1
100
AcDbSymbolTableRecord
100
AcDbBlockTableRecord
  2
*D40
340
0
  0
BLOCK_RECORD
  5
B68F
330
1
100
AcDbSymbolTableRecord
100
AcDbBlockTableRecord
  2
*D41
340
0
  0
BLOCK_RECORD
  5
B6A7
330
1
100
AcDbSymbolTableRecord
100
AcDbBlockTableRecord
  2
*D42
340
0
  0
BLOCK_RECORD
  5
B6B3
330
1
100
AcDbSymbolTableRecord
100
AcDbBlockTableRecord
  2
*D43
340
0
  0
BLOCK_RECORD
  5
B798
330
1
100
AcDbSymbolTableRecord
100
AcDbBlockTableRecord
  2
*D44
340
0
  0
BLOCK_RECORD
  5
B9F7
330
1
100
AcDbSymbolTableRecord
100
AcDbBlockTableRecord
  2
*D45
340
0
  0
BLOCK_RECORD
  5
BA03
330
1
100
AcDbSymbolTableRecord
100
AcDbBlockTableRecord
  2
*D46
340
0
  0
BLOCK_RECORD
  5
C8DD
330
1
100
AcDbSymbolTableRecord
100
AcDbBlockTableRecord
  2
*D48
340
0
  0
BLOCK_RECORD
  5
C992
330
1
100
AcDbSymbolTableRecord
100
AcDbBlockTableRecord
  2
A$C275B7FF9
340
0
102
{BLKREFS
331
C9A2
102
}
  0
BLOCK_RECORD
  5
C9A9
330
1
100
AcDbSymbolTableRecord
100
AcDbBlockTableRecord
  2
*D50
340
0
  0
BLOCK_RECORD
  5
C9B5
330
1
100
AcDbSymbolTableRecord
100
AcDbBlockTableRecord
  2
*D51
340
0
  0
BLOCK_RECORD
  5
C9C1
330
1
100
AcDbSymbolTableRecord
100
AcDbBlockTableRecord
  2
*D52
340
0
  0
BLOCK_RECORD
  5
C9CD
330
1
100
AcDbSymbolTableRecord
100
AcDbBlockTableRecord
  2
*D53
340
0
  0
BLOCK_RECORD
  5
C9D9
330
1
100
AcDbSymbolTableRecord
100
AcDbBlockTableRecord
  2
A$C54213600
340
0
  0
BLOCK_RECORD
  5
C9E2
330
1
100
AcDbSymbolTableRecord
100
AcDbBlockTableRecord
  2
*D55
340
0
  0
BLOCK_RECORD
  5
C9EE
330
1
100
AcDbSymbolTableRecord
100
AcDbBlockTableRecord
  2
*D56
340
0
  0
BLOCK_RECORD
  5
C9FA
330
1
100
AcDbSymbolTableRecord
100
AcDbBlockTableRecord
  2
*D57
340
0
  0
BLOCK_RECORD
  5
CA06
330
1
100
AcDbSymbolTableRecord
100
AcDbBlockTableRecord
  2
*D58
340
0
  0
BLOCK_RECORD
  5
CA1E
330
1
100
AcDbSymbolTableRecord
100
AcDbBlockTableRecord
  2
*D60
340
0
  0
BLOCK_RECORD
  5
CA2A
330
1
100
AcDbSymbolTableRecord
100
AcDbBlockTableRecord
  2
*D61
340
0
  0
BLOCK_RECORD
  5
CA36
330
1
100
AcDbSymbolTableRecord
100
AcDbBlockTableRecord
  2
*D62
340
0
  0
BLOCK_RECORD
  5
CA42
330
1
100
AcDbSymbolTableRecord
100
AcDbBlockTableRecord
  2
*D63
340
0
  0
BLOCK_RECORD
  5
CA85
330
1
100
AcDbSymbolTableRecord
100
AcDbBlockTableRecord
  2
*D64
340
0
  0
BLOCK_RECORD
  5
CA9D
330
1
100
AcDbSymbolTableRecord
100
AcDbBlockTableRecord
  2
_D17
340
0
  0
BLOCK_RECORD
  5
CAA6
330
1
100
AcDbSymbolTableRecord
100
AcDbBlockTableRecord
  2
_D19
340
0
  0
BLOCK_RECORD
  5
CAAF
330
1
100
AcDbSymbolTableRecord
100
AcDbBlockTableRecord
  2
_D43
340
0
  0
BLOCK_RECORD
  5
CCDA
330
1
100
AcDbSymbolTableRecord
100
AcDbBlockTableRecord
  2
*D69
340
0
  0
BLOCK_RECORD
  5
CCE7
330
1
100
AcDbSymbolTableRecord
100
AcDbBlockTableRecord
  2
*D70
340
0
  0
BLOCK_RECORD
  5
CCF3
330
1
100
AcDbSymbolTableRecord
100
AcDbBlockTableRecord
  2
*D71
340
0
  0
BLOCK_RECORD
  5
CD38
330
1
100
AcDbSymbolTableRecord
100
AcDbBlockTableRecord
  2
*D72
340
0
  0
ENDTAB
  0
ENDSEC
  0
SECTION
  2
BLOCKS
  0
BLOCK
  5
1F
330
1E
100
AcDbEntity
  8
0
100
AcDbBlockBegin
  2
*MODEL_SPACE
 70
     0
 10
0.0
 20
0.0
 30
0.0
  3
*MODEL_SPACE
  1

  0
ENDBLK
  5
20
330
1E
100
AcDbEntity
  8
0
100
AcDbBlockEnd
  0
BLOCK
  5
1B
330
1A
100
AcDbEntity
 67
     1
  8
0
100
AcDbBlockBegin
  2
*PAPER_SPACE
 70
     0
 10
0.0
 20
0.0
 30
0.0
  3
*PAPER_SPACE
  1

  0
ENDBLK
  5
1C
330
1A
100
AcDbEntity
 67
     1
  8
0
100
AcDbBlockEnd
  0
BLOCK
  5
3B6
330
3B2
100
AcDbEntity
  8
0
100
AcDbBlockBegin
  2
_OPEN
 70
     0
 10
0.0
 20
0.0
 30
0.0
  3
_OPEN
  1

  0
LINE
  5
3B3
330
3B2
100
AcDbEntity
  8
30
  6
Continuous
 62
     0
100
AcDbLine
 10
-1.0
 20
0.166667
 30
0.0
 11
0.0
 21
0.0
 31
0.0
  0
LINE
  5
3B4
330
3B2
100
AcDbEntity
  8
30
  6
Continuous
 62
     0
100
AcDbLine
 10
-1.0
 20
-0.166667
 30
0.0
 11
0.0
 21
0.0
 31
0.0
  0
LINE
  5
3B5
330
3B2
100
AcDbEntity
  8
30
  6
Continuous
 62
     0
100
AcDbLine
 10
0.0
 20
0.0
 30
0.0
 11
-1.0
 21
0.0
 31
0.0
  0
ENDBLK
  5
3B7
330
3B2
100
AcDbEntity
  8
0
100
AcDbBlockEnd
  0
BLOCK
  5
9834
330
9829
100
AcDbEntity
  8
0
100
AcDbBlockBegin
  2
*D1
 70
     1
 10
0.0
 20
0.0
 30
0.0
  3
*D1
  1

  0
LINE
  5
C6E7
330
9829
100
AcDbEntity
  8
30
  6
Continuous
 62
     0
370
    -2
100
AcDbLine
 10
147.9935351126155
 20
-197.0474753083983
 30
0.0
 11
198.9287293623583
 21
-197.0474753083983
 31
0.0
  0
LINE
  5
C6E8
330
9829
100
AcDbEntity
  8
30
  6
Continuous
 62
     0
370
    -2
100
AcDbLine
 10
147.9935351126155
 20
-165.0474753083985
 30
0.0
 11
198.9287293623583
 21
-165.0474753083985
 31
0.0
  0
LINE
  5
C6E9
330
9829
100
AcDbEntity
  8
30
  6
Continuous
 62
     0
370
    -2
100
AcDbLine
 10
198.428729362358
 20
-195.0474753083983
 30
0.0
 11
198.4287293623583
 21
-167.0474753083983
 31
0.0
  0
INSERT
  5
C6EA
330
9829
100
AcDbEntity
  8
30
  6
Continuous
 62
     0
370
    -2
100
AcDbBlockReference
  2
_OPEN
 10
198.428729362358
 20
-197.0474753083983
 30
0.0
 41
2.0
 42
2.0
 43
2.0
 50
270.0
  0
INSERT
  5
C6EB
330
9829
100
AcDbEntity
  8
30
  6
Continuous
 62
     0
370
    -2
100
AcDbBlockReference
  2
_OPEN
 10
198.4287293623583
 20
-165.0474753083985
 30
0.0
 41
2.0
 42
2.0
 43
2.0
 50
90.0
  0
MTEXT
  5
C6EC
330
9829
100
AcDbEntity
  8
30
  6
Continuous
 62
     0
100
AcDbMText
 10
192.4287293623583
 20
-181.0474753083983
 30
0.0
 40
6.0
 41
0.0
 71
     5
 72
     1
  1
\A1; 32 
 11
0.0000000000000001
 21
1.0
 31
0.0
 73
     1
 44
1.0
  0
POINT
  5
C6ED
330
9829
100
AcDbEntity
  8
DEFPOINTS
  6
Continuous
 62
     0
100
AcDbPoint
 10
144.9935351126155
 20
-197.0474753083983
 30
0.0
  0
POINT
  5
C6EE
330
9829
100
AcDbEntity
  8
DEFPOINTS
  6
Continuous
 62
     0
100
AcDbPoint
 10
144.9935351126155
 20
-165.0474753083985
 30
0.0
  0
POINT
  5
C6EF
330
9829
100
AcDbEntity
  8
DEFPOINTS
  6
Continuous
 62
     0
100
AcDbPoint
 10
198.4287293623583
 20
-165.0474753083985
 30
0.0
  0
ENDBLK
  5
9835
330
9829
100
AcDbEntity
  8
0
100
AcDbBlockEnd
  0
BLOCK
  5
9842
330
9836
100
AcDbEntity
  8
0
100
AcDbBlockBegin
  2
*D2
 70
     1
 10
0.0
 20
0.0
 30
0.0
  3
*D2
  1

  0
LINE
  5
C6DC
330
9836
100
AcDbEntity
  8
30
  6
Continuous
 62
     0
370
    -2
100
AcDbLine
 10
147.9935351126155
 20
-165.0474753083985
 30
0.0
 11
198.9287293623583
 21
-165.0474753083985
 31
0.0
  0
LINE
  5
C6DD
330
9836
100
AcDbEntity
  8
30
  6
Continuous
 62
     0
370
    -2
100
AcDbLine
 10
147.9935351126155
 20
-157.0474753083986
 30
0.0
 11
198.9287293623583
 21
-157.0474753083986
 31
0.0
  0
LINE
  5
C6DE
330
9836
100
AcDbEntity
  8
30
  6
Continuous
 62
     0
370
    -2
100
AcDbLine
 10
198.428729362358
 20
-167.0474753083983
 30
0.0
 11
198.428729362358
 21
-169.0474753083983
 31
0.0
  0
LINE
  5
C6DF
330
9836
100
AcDbEntity
  8
30
  6
Continuous
 62
     0
370
    -2
100
AcDbLine
 10
198.428729362358
 20
-155.0474753083985
 30
0.0
 11
198.428729362358
 21
-153.0474753083985
 31
0.0
  0
MTEXT
  5
C6E0
330
9836
100
AcDbEntity
  8
30
  6
Continuous
 62
     0
100
AcDbMText
 10
193.0
 20
-163.0
 30
0.0
 40
6.0
 41
0.0
 71
     5
 72
     1
  1
\A1; 8 
 11
0.0000000000000001
 21
1.0
 31
0.0
 73
     1
 44
1.0
  0
LINE
  5
C6E1
330
9836
100
AcDbEntity
  8
30
  6
Continuous
 62
     0
370
    -2
100
AcDbLine
 10
198.428729362358
 20
-165.0474753083985
 30
0.0
 11
198.428729362358
 21
-157.0474753083986
 31
0.0
  0
INSERT
  5
C6E2
330
9836
100
AcDbEntity
  8
30
  6
Continuous
 62
     0
370
    -2
100
AcDbBlockReference
  2
_OPEN
 10
198.428729362358
 20
-165.0474753083985
 30
0.0
 41
2.0
 42
2.0
 43
2.0
 50
90.0
  0
INSERT
  5
C6E3
330
9836
100
AcDbEntity
  8
30
  6
Continuous
 62
     0
370
    -2
100
AcDbBlockReference
  2
_OPEN
 10
198.428729362358
 20
-157.0474753083986
 30
0.0
 41
2.0
 42
2.0
 43
2.0
 50
270.0
  0
POINT
  5
C6E4
330
9836
100
AcDbEntity
  8
DEFPOINTS
  6
Continuous
 62
     0
100
AcDbPoint
 10
144.9935351126155
 20
-165.0474753083985
 30
0.0
  0
POINT
  5
C6E5
330
9836
100
AcDbEntity
  8
DEFPOINTS
  6
Continuous
 62
     0
100
AcDbPoint
 10
144.9935351126155
 20
-157.0474753083986
 30
0.0
  0
POINT
  5
C6E6
330
9836
100
AcDbEntity
  8
DEFPOINTS
  6
Continuous
 62
     0
100
AcDbPoint
 10
198.428729362358
 20
-157.0474753083986
 30
0.0
  0
ENDBLK
  5
9843
330
9836
100
AcDbEntity
  8
0
100
AcDbBlockEnd
  0
BLOCK
  5
984F
330
9844
100
AcDbEntity
  8
0
100
AcDbBlockBegin
  2
*D3
 70
     1
 10
0.0
 20
0.0
 30
0.0
  3
*D3
  1

  0
LINE
  5
C6D3
330
9844
100
AcDbEntity
  8
30
  6
Continuous
 62
     0
370
    -2
100
AcDbLine
 10
147.9935351126155
 20
-157.0474753083986
 30
0.0
 11
198.9287293623583
 21
-157.0474753083986
 31
0.0
  0
LINE
  5
C6D4
330
9844
100
AcDbEntity
  8
30
  6
Continuous
 62
     0
370
    -2
100
AcDbLine
 10
182.9935351126155
 20
-132.0474753083987
 30
0.0
 11
198.9287293623583
 21
-132.0474753083987
 31
0.0
  0
LINE
  5
C6D5
330
9844
100
AcDbEntity
  8
30
  6
Continuous
 62
     0
370
    -2
100
AcDbLine
 10
198.4287293623583
 20
-155.0474753083985
 30
0.0
 11
198.4287293623583
 21
-134.0474753083987
 31
0.0
  0
INSERT
  5
C6D6
330
9844
100
AcDbEntity
  8
30
  6
Continuous
 62
     0
370
    -2
100
AcDbBlockReference
  2
_OPEN
 10
198.4287293623583
 20
-157.0474753083986
 30
0.0
 41
2.0
 42
2.0
 43
2.0
 50
270.0
  0
INSERT
  5
C6D7
330
9844
100
AcDbEntity
  8
30
  6
Continuous
 62
     0
370
    -2
100
AcDbBlockReference
  2
_OPEN
 10
198.4287293623583
 20
-132.0474753083987
 30
0.0
 41
2.0
 42
2.0
 43
2.0
 50
90.0
  0
MTEXT
  5
C6D8
330
9844
100
AcDbEntity
  8
30
  6
Continuous
 62
     0
100
AcDbMText
 10
192.4287293623583
 20
-144.5474753083986
 30
0.0
 40
6.0
 41
0.0
 71
     5
 72
     1
  1
\A1; 25 
 11
0.0000000000000001
 21
1.0
 31
0.0
 73
     1
 44
1.0
  0
POINT
  5
C6D9
330
9844
100
AcDbEntity
  8
DEFPOINTS
  6
Continuous
 62
     0
100
AcDbPoint
 10
144.9935351126155
 20
-157.0474753083986
 30
0.0
  0
POINT
  5
C6DA
330
9844
100
AcDbEntity
  8
DEFPOINTS
  6
Continuous
 62
     0
100
AcDbPoint
 10
179.9935351126155
 20
-132.0474753083987
 30
0.0
  0
POINT
  5
C6DB
330
9844
100
AcDbEntity
  8
DEFPOINTS
  6
Continuous
 62
     0
100
AcDbPoint
 10
198.4287293623583
 20
-132.0474753083987
 30
0.0
  0
ENDBLK
  5
9850
330
9844
100
AcDbEntity
  8
0
100
AcDbBlockEnd
  0
BLOCK
  5
985C
330
9851
100
AcDbEntity
  8
0
100
AcDbBlockBegin
  2
*D4
 70
     1
 10
0.0
 20
0.0
 30
0.0
  3
*D4
  1

  0
LINE
  5
C6CA
330
9851
100
AcDbEntity
  8
30
  6
Continuous
 62
     0
370
    -2
100
AcDbLine
 10
-107.9999999999994
 20
55.45252469160089
 30
0.0
 11
-144.0336879211943
 21
55.45252469160089
 31
0.0
  0
LINE
  5
C6CB
330
9851
100
AcDbEntity
  8
30
  6
Continuous
 62
     0
370
    -2
100
AcDbLine
 10
-107.9999999999994
 20
-0.044908985831564
 30
0.0
 11
-144.0336879211943
 21
-0.0449089858315538
 31
0.0
  0
LINE
  5
C6CC
330
9851
100
AcDbEntity
  8
30
  6
Continuous
 62
     0
370
    -2
100
AcDbLine
 10
-143.5336879211943
 20
53.45252469160089
 30
0.0
 11
-143.5336879211943
 21
1.955091014168446
 31
0.0
  0
INSERT
  5
C6CD
330
9851
100
AcDbEntity
  8
30
  6
Continuous
 62
     0
370
    -2
100
AcDbBlockReference
  2
_OPEN
 10
-143.5336879211943
 20
55.45252469160089
 30
0.0
 41
2.0
 42
2.0
 43
2.0
 50
90.0
  0
INSERT
  5
C6CE
330
9851
100
AcDbEntity
  8
30
  6
Continuous
 62
     0
370
    -2
100
AcDbBlockReference
  2
_OPEN
 10
-143.5336879211943
 20
-0.0449089858315539
 30
0.0
 41
2.0
 42
2.0
 43
2.0
 50
270.0
  0
MTEXT
  5
C6CF
330
9851
100
AcDbEntity
  8
30
  6
Continuous
 62
     0
100
AcDbMText
 10
-149.5336879211943
 20
27.70380785288465
 30
0.0
 40
6.0
 41
0.0
 71
     5
 72
     1
  1
\A1; 55.5 
 11
0.0000000000000001
 21
1.0
 31
0.0
 73
     1
 44
1.0
  0
POINT
  5
C6D0
330
9851
100
AcDbEntity
  8
DEFPOINTS
  6
Continuous
 62
     0
100
AcDbPoint
 10
-104.9999999999994
 20
55.45252469160089
 30
0.0
  0
POINT
  5
C6D1
330
9851
100
AcDbEntity
  8
DEFPOINTS
  6
Continuous
 62
     0
100
AcDbPoint
 10
-104.9999999999994
 20
-0.0449089858315648
 30
0.0
  0
POINT
  5
C6D2
330
9851
100
AcDbEntity
  8
DEFPOINTS
  6
Continuous
 62
     0
100
AcDbPoint
 10
-143.5336879211943
 20
-0.0449089858315539
 30
0.0
  0
ENDBLK
  5
985D
330
9851
100
AcDbEntity
  8
0
100
AcDbBlockEnd
  0
BLOCK
  5
9869
330
985E
100
AcDbEntity
  8
0
100
AcDbBlockBegin
  2
*D5
 70
     1
 10
0.0
 20
0.0
 30
0.0
  3
*D5
  1

  0
LINE
  5
C6C1
330
985E
100
AcDbEntity
  8
30
  6
Continuous
 62
     0
370
    -2
100
AcDbLine
 10
-107.9999999999994
 20
-0.044908985831564
 30
0.0
 11
-144.0336879211943
 21
-0.0449089858315538
 31
0.0
  0
LINE
  5
C6C2
330
985E
100
AcDbEntity
  8
30
  6
Continuous
 62
     0
370
    -2
100
AcDbLine
 10
-107.9999999999994
 20
-46.5474753083988
 30
0.0
 11
-144.0336879211943
 21
-46.54747530839879
 31
0.0
  0
LINE
  5
C6C3
330
985E
100
AcDbEntity
  8
30
  6
Continuous
 62
     0
370
    -2
100
AcDbLine
 10
-143.5336879211943
 20
-2.044908985831553
 30
0.0
 11
-143.5336879211943
 21
-44.54747530839878
 31
0.0
  0
INSERT
  5
C6C4
330
985E
100
AcDbEntity
  8
30
  6
Continuous
 62
     0
370
    -2
100
AcDbBlockReference
  2
_OPEN
 10
-143.5336879211943
 20
-0.0449089858315539
 30
0.0
 41
2.0
 42
2.0
 43
2.0
 50
90.0
  0
INSERT
  5
C6C5
330
985E
100
AcDbEntity
  8
30
  6
Continuous
 62
     0
370
    -2
100
AcDbBlockReference
  2
_OPEN
 10
-143.5336879211943
 20
-46.5474753083988
 30
0.0
 41
2.0
 42
2.0
 43
2.0
 50
270.0
  0
MTEXT
  5
C6C6
330
985E
100
AcDbEntity
  8
30
  6
Continuous
 62
     0
100
AcDbMText
 10
-149.5336879211943
 20
-23.29619214711519
 30
0.0
 40
6.0
 41
0.0
 71
     5
 72
     1
  1
\A1; 46.5 
 11
0.0000000000000001
 21
1.0
 31
0.0
 73
     1
 44
1.0
  0
POINT
  5
C6C7
330
985E
100
AcDbEntity
  8
DEFPOINTS
  6
Continuous
 62
     0
100
AcDbPoint
 10
-104.9999999999994
 20
-0.0449089858315648
 30
0.0
  0
POINT
  5
C6C8
330
985E
100
AcDbEntity
  8
DEFPOINTS
  6
Continuous
 62
     0
100
AcDbPoint
 10
-104.9999999999994
 20
-46.5474753083988
 30
0.0
  0
POINT
  5
C6C9
330
985E
100
AcDbEntity
  8
DEFPOINTS
  6
Continuous
 62
     0
100
AcDbPoint
 10
-143.5336879211943
 20
-46.5474753083988
 30
0.0
  0
ENDBLK
  5
986A
330
985E
100
AcDbEntity
  8
0
100
AcDbBlockEnd
  0
BLOCK
  5
9876
330
986B
100
AcDbEntity
  8
0
100
AcDbBlockBegin
  2
*D6
 70
     1
 10
0.0
 20
0.0
 30
0.0
  3
*D6
  1

  0
LINE
  5
C6B8
330
986B
100
AcDbEntity
  8
30
  6
Continuous
 62
     0
370
    -2
100
AcDbLine
 10
-18.20646488738384
 20
45.02951270952545
 30
0.0
 11
-123.9351942497417
 21
45.02951270952546
 31
0.0
  0
LINE
  5
C6B9
330
986B
100
AcDbEntity
  8
30
  6
Continuous
 62
     0
370
    -2
100
AcDbLine
 10
-18.20646488738384
 20
-44.97048729047428
 30
0.0
 11
-123.9351942497419
 21
-44.97048729047425
 31
0.0
  0
LINE
  5
C6BA
330
986B
100
AcDbEntity
  8
30
  6
Continuous
 62
     0
370
    -2
100
AcDbLine
 10
-123.4351942497418
 20
43.02951270952546
 30
0.0
 11
-123.4351942497418
 21
-42.97048729047425
 31
0.0
  0
INSERT
  5
C6BB
330
986B
100
AcDbEntity
  8
30
  6
Continuous
 62
     0
370
    -2
100
AcDbBlockReference
  2
_OPEN
 10
-123.4351942497418
 20
45.02951270952546
 30
0.0
 41
2.0
 42
2.0
 43
2.0
 50
90.0
  0
INSERT
  5
C6BC
330
986B
100
AcDbEntity
  8
30
  6
Continuous
 62
     0
370
    -2
100
AcDbBlockReference
  2
_OPEN
 10
-123.4351942497418
 20
-44.97048729047425
 30
0.0
 41
2.0
 42
2.0
 43
2.0
 50
270.0
  0
MTEXT
  5
C6BD
330
986B
100
AcDbEntity
  8
30
  6
Continuous
 62
     0
100
AcDbMText
 10
-129.4351942497418
 20
0.0295127095255919
 30
0.0
 40
6.0
 41
0.0
 71
     5
 72
     1
  1
\A1; 90 
 11
0.0000000000000001
 21
1.0
 31
0.0
 73
     1
 44
1.0
  0
POINT
  5
C6BE
330
986B
100
AcDbEntity
  8
DEFPOINTS
  6
Continuous
 62
     0
100
AcDbPoint
 10
-15.20646488738384
 20
45.02951270952544
 30
0.0
  0
POINT
  5
C6BF
330
986B
100
AcDbEntity
  8
DEFPOINTS
  6
Continuous
 62
     0
100
AcDbPoint
 10
-15.20646488738384
 20
-44.97048729047429
 30
0.0
  0
POINT
  5
C6C0
330
986B
100
AcDbEntity
  8
DEFPOINTS
  6
Continuous
 62
     0
100
AcDbPoint
 10
-123.4351942497418
 20
-44.97048729047425
 30
0.0
  0
ENDBLK
  5
9877
330
986B
100
AcDbEntity
  8
0
100
AcDbBlockEnd
  0
BLOCK
  5
9882
330
9878
100
AcDbEntity
  8
0
100
AcDbBlockBegin
  2
*D7
 70
     1
 10
0.0
 20
0.0
 30
0.0
  3
*D7
  1

  0
LINE
  5
C6AF
330
9878
100
AcDbEntity
  8
30
  6
Continuous
 62
     0
370
    -2
100
AcDbLine
 10
-25.29999999999994
 20
-52.97048729047421
 30
0.0
 11
-25.29999999999994
 21
-72.56636229047417
 31
0.0
  0
LINE
  5
C6B0
330
9878
100
AcDbEntity
  8
30
  6
Continuous
 62
     0
370
    -2
100
AcDbLine
 10
25.70000000000003
 20
-52.97048729047421
 30
0.0
 11
25.70000000000003
 21
-72.56636229047417
 31
0.0
  0
LINE
  5
C6B1
330
9878
100
AcDbEntity
  8
30
  6
Continuous
 62
     0
370
    -2
100
AcDbLine
 10
-23.29999999999994
 20
-72.06636229047417
 30
0.0
 11
23.70000000000004
 21
-72.06636229047417
 31
0.0
  0
INSERT
  5
C6B2
330
9878
100
AcDbEntity
  8
30
  6
Continuous
 62
     0
370
    -2
100
AcDbBlockReference
  2
_OPEN
 10
-25.29999999999994
 20
-72.06636229047417
 30
0.0
 41
2.0
 42
2.0
 43
2.0
 50
180.0
  0
INSERT
  5
C6B3
330
9878
100
AcDbEntity
  8
30
  6
Continuous
 62
     0
370
    -2
100
AcDbBlockReference
  2
_OPEN
 10
25.70000000000003
 20
-72.06636229047417
 30
0.0
 41
2.0
 42
2.0
 43
2.0
  0
MTEXT
  5
C6B4
330
9878
100
AcDbEntity
  8
30
  6
Continuous
 62
     0
100
AcDbMText
 10
0.2000000000000458
 20
-66.06636229047417
 30
0.0
 40
6.0
 41
0.0
 71
     5
 72
     1
  1
\A1; 51 
 73
     1
 44
1.0
  0
POINT
  5
C6B5
330
9878
100
AcDbEntity
  8
DEFPOINTS
  6
Continuous
 62
     0
100
AcDbPoint
 10
-25.29999999999994
 20
-49.97048729047421
 30
0.0
  0
POINT
  5
C6B6
330
9878
100
AcDbEntity
  8
DEFPOINTS
  6
Continuous
 62
     0
100
AcDbPoint
 10
25.70000000000003
 20
-49.97048729047421
 30
0.0
  0
POINT
  5
C6B7
330
9878
100
AcDbEntity
  8
DEFPOINTS
  6
Continuous
 62
     0
100
AcDbPoint
 10
25.70000000000003
 20
-72.06636229047417
 30
0.0
  0
ENDBLK
  5
9883
330
9878
100
AcDbEntity
  8
0
100
AcDbBlockEnd
  0
BLOCK
  5
98B4
330
98AA
100
AcDbEntity
  8
0
100
AcDbBlockBegin
  2
*D8
 70
     1
 10
0.0
 20
0.0
 30
0.0
  3
*D8
  1

  0
LINE
  5
C6A6
330
98AA
100
AcDbEntity
  8
30
  6
Continuous
 62
     0
370
    -2
100
AcDbLine
 10
463.0
 20
-219.9704872904738
 30
0.0
 11
463.0
 21
-247.5663622904738
 31
0.0
  0
LINE
  5
C6A7
330
98AA
100
AcDbEntity
  8
30
  6
Continuous
 62
     0
370
    -2
100
AcDbLine
 10
496.9999999999997
 20
-139.9704872904738
 30
0.0
 11
496.9999999999997
 21
-247.5663622904738
 31
0.0
  0
LINE
  5
C6A8
330
98AA
100
AcDbEntity
  8
30
  6
Continuous
 62
     0
370
    -2
100
AcDbLine
 10
465.0
 20
-247.0663622904738
 30
0.0
 11
494.9999999999997
 21
-247.0663622904738
 31
0.0
  0
INSERT
  5
C6A9
330
98AA
100
AcDbEntity
  8
30
  6
Continuous
 62
     0
370
    -2
100
AcDbBlockReference
  2
_OPEN
 10
463.0
 20
-247.0663622904738
 30
0.0
 41
2.0
 42
2.0
 43
2.0
 50
180.0
  0
INSERT
  5
C6AA
330
98AA
100
AcDbEntity
  8
30
  6
Continuous
 62
     0
370
    -2
100
AcDbBlockReference
  2
_OPEN
 10
496.9999999999997
 20
-247.0663622904738
 30
0.0
 41
2.0
 42
2.0
 43
2.0
  0
MTEXT
  5
C6AB
330
98AA
100
AcDbEntity
  8
30
  6
Continuous
 62
     0
100
AcDbMText
 10
479.9999999999998
 20
-241.0663622904738
 30
0.0
 40
6.0
 41
0.0
 71
     5
 72
     1
  1
\A1; 34 
 73
     1
 44
1.0
  0
POINT
  5
C6AC
330
98AA
100
AcDbEntity
  8
DEFPOINTS
  6
Continuous
 62
     0
100
AcDbPoint
 10
463.0
 20
-216.9704872904739
 30
0.0
  0
POINT
  5
C6AD
330
98AA
100
AcDbEntity
  8
DEFPOINTS
  6
Continuous
 62
     0
100
AcDbPoint
 10
496.9999999999997
 20
-136.9704872904738
 30
0.0
  0
POINT
  5
C6AE
330
98AA
100
AcDbEntity
  8
DEFPOINTS
  6
Continuous
 62
     0
100
AcDbPoint
 10
496.9999999999997
 20
-247.0663622904738
 30
0.0
  0
ENDBLK
  5
98B5
330
98AA
100
AcDbEntity
  8
0
100
AcDbBlockEnd
  0
BLOCK
  5
98C0
330
98B6
100
AcDbEntity
  8
0
100
AcDbBlockBegin
  2
*D9
 70
     1
 10
0.0
 20
0.0
 30
0.0
  3
*D9
  1

  0
LINE
  5
C69D
330
98B6
100
AcDbEntity
  8
30
  6
Continuous
 62
     0
370
    -2
100
AcDbLine
 10
394.0000000000001
 20
-52.97048729047421
 30
0.0
 11
394.0000000000001
 21
-261.9570596902168
 31
0.0
  0
LINE
  5
C69E
330
98B6
100
AcDbEntity
  8
30
  6
Continuous
 62
     0
370
    -2
100
AcDbLine
 10
496.9999999999997
 20
-139.9704872904738
 30
0.0
 11
496.9999999999997
 21
-261.9570596902168
 31
0.0
  0
LINE
  5
C69F
330
98B6
100
AcDbEntity
  8
30
  6
Continuous
 62
     0
370
    -2
100
AcDbLine
 10
396.0000000000001
 20
-261.4570596902169
 30
0.0
 11
494.9999999999997
 21
-261.4570596902169
 31
0.0
  0
INSERT
  5
C6A0
330
98B6
100
AcDbEntity
  8
30
  6
Continuous
 62
     0
370
    -2
100
AcDbBlockReference
  2
_OPEN
 10
394.0000000000001
 20
-261.4570596902169
 30
0.0
 41
2.0
 42
2.0
 43
2.0
 50
180.0
  0
INSERT
  5
C6A1
330
98B6
100
AcDbEntity
  8
30
  6
Continuous
 62
     0
370
    -2
100
AcDbBlockReference
  2
_OPEN
 10
496.9999999999997
 20
-261.4570596902169
 30
0.0
 41
2.0
 42
2.0
 43
2.0
  0
MTEXT
  5
C6A2
330
98B6
100
AcDbEntity
  8
30
  6
Continuous
 62
     0
100
AcDbMText
 10
445.4999999999998
 20
-255.4570596902169
 30
0.0
 40
6.0
 41
0.0
 71
     5
 72
     1
  1
\A1; 103 
 73
     1
 44
1.0
  0
POINT
  5
C6A3
330
98B6
100
AcDbEntity
  8
DEFPOINTS
  6
Continuous
 62
     0
100
AcDbPoint
 10
394.0000000000001
 20
-49.97048729047421
 30
0.0
  0
POINT
  5
C6A4
330
98B6
100
AcDbEntity
  8
DEFPOINTS
  6
Continuous
 62
     0
100
AcDbPoint
 10
496.9999999999997
 20
-136.9704872904738
 30
0.0
  0
POINT
  5
C6A5
330
98B6
100
AcDbEntity
  8
DEFPOINTS
  6
Continuous
 62
     0
100
AcDbPoint
 10
496.9999999999997
 20
-261.4570596902169
 30
0.0
  0
ENDBLK
  5
98C1
330
98B6
100
AcDbEntity
  8
0
100
AcDbBlockEnd
  0
BLOCK
  5
98CC
330
98C2
100
AcDbEntity
  8
0
100
AcDbBlockBegin
  2
*D10
 70
     1
 10
0.0
 20
0.0
 30
0.0
  3
*D10
  1

  0
LINE
  5
C694
330
98C2
100
AcDbEntity
  8
30
  6
Continuous
 62
     0
370
    -2
100
AcDbLine
 10
390.0
 20
-52.97048729047421
 30
0.0
 11
390.0
 21
-278.3595104140895
 31
0.0
  0
LINE
  5
C695
330
98C2
100
AcDbEntity
  8
30
  6
Continuous
 62
     0
370
    -2
100
AcDbLine
 10
496.9999999999997
 20
-139.9704872904738
 30
0.0
 11
496.9999999999997
 21
-278.3595104140895
 31
0.0
  0
LINE
  5
C696
330
98C2
100
AcDbEntity
  8
30
  6
Continuous
 62
     0
370
    -2
100
AcDbLine
 10
392.0
 20
-277.8595104140896
 30
0.0
 11
494.9999999999997
 21
-277.8595104140896
 31
0.0
  0
INSERT
  5
C697
330
98C2
100
AcDbEntity
  8
30
  6
Continuous
 62
     0
370
    -2
100
AcDbBlockReference
  2
_OPEN
 10
390.0
 20
-277.8595104140896
 30
0.0
 41
2.0
 42
2.0
 43
2.0
 50
180.0
  0
INSERT
  5
C698
330
98C2
100
AcDbEntity
  8
30
  6
Continuous
 62
     0
370
    -2
100
AcDbBlockReference
  2
_OPEN
 10
496.9999999999997
 20
-277.8595104140896
 30
0.0
 41
2.0
 42
2.0
 43
2.0
  0
MTEXT
  5
C699
330
98C2
100
AcDbEntity
  8
30
  6
Continuous
 62
     0
100
AcDbMText
 10
443.4999999999998
 20
-271.8595104140896
 30
0.0
 40
6.0
 41
0.0
 71
     5
 72
     1
  1
\A1; 107 
 73
     1
 44
1.0
  0
POINT
  5
C69A
330
98C2
100
AcDbEntity
  8
DEFPOINTS
  6
Continuous
 62
     0
100
AcDbPoint
 10
390.0
 20
-49.97048729047421
 30
0.0
  0
POINT
  5
C69B
330
98C2
100
AcDbEntity
  8
DEFPOINTS
  6
Continuous
 62
     0
100
AcDbPoint
 10
496.9999999999997
 20
-136.9704872904738
 30
0.0
  0
POINT
  5
C69C
330
98C2
100
AcDbEntity
  8
DEFPOINTS
  6
Continuous
 62
     0
100
AcDbPoint
 10
496.9999999999997
 20
-277.8595104140896
 30
0.0
  0
ENDBLK
  5
98CD
330
98C2
100
AcDbEntity
  8
0
100
AcDbBlockEnd
  0
BLOCK
  5
98D8
330
98CE
100
AcDbEntity
  8
0
100
AcDbBlockBegin
  2
*D11
 70
     1
 10
0.0
 20
0.0
 30
0.0
  3
*D11
  1

  0
LINE
  5
C68B
330
98CE
100
AcDbEntity
  8
30
  6
Continuous
 62
     0
370
    -2
100
AcDbLine
 10
369.5000000000001
 20
2.029512709525683
 30
0.0
 11
369.5000000000001
 21
-294.4475881644976
 31
0.0
  0
LINE
  5
C68C
330
98CE
100
AcDbEntity
  8
30
  6
Continuous
 62
     0
370
    -2
100
AcDbLine
 10
496.9999999999997
 20
-3.470487290474408
 30
0.0
 11
496.9999999999997
 21
-294.4475881644976
 31
0.0
  0
LINE
  5
C68D
330
98CE
100
AcDbEntity
  8
30
  6
Continuous
 62
     0
370
    -2
100
AcDbLine
 10
371.5000000000001
 20
-293.9475881644976
 30
0.0
 11
494.9999999999997
 21
-293.9475881644976
 31
0.0
  0
INSERT
  5
C68E
330
98CE
100
AcDbEntity
  8
30
  6
Continuous
 62
     0
370
    -2
100
AcDbBlockReference
  2
_OPEN
 10
369.5000000000001
 20
-293.9475881644976
 30
0.0
 41
2.0
 42
2.0
 43
2.0
 50
180.0
  0
INSERT
  5
C68F
330
98CE
100
AcDbEntity
  8
30
  6
Continuous
 62
     0
370
    -2
100
AcDbBlockReference
  2
_OPEN
 10
496.9999999999997
 20
-293.9475881644976
 30
0.0
 41
2.0
 42
2.0
 43
2.0
  0
MTEXT
  5
C690
330
98CE
100
AcDbEntity
  8
30
  6
Continuous
 62
     0
100
AcDbMText
 10
433.2499999999998
 20
-287.9475881644976
 30
0.0
 40
6.0
 41
0.0
 71
     5
 72
     1
  1
\A1; 127.5 
 73
     1
 44
1.0
  0
POINT
  5
C691
330
98CE
100
AcDbEntity
  8
DEFPOINTS
  6
Continuous
 62
     0
100
AcDbPoint
 10
369.5000000000001
 20
5.029512709525683
 30
0.0
  0
POINT
  5
C692
330
98CE
100
AcDbEntity
  8
DEFPOINTS
  6
Continuous
 62
     0
100
AcDbPoint
 10
496.9999999999997
 20
-0.47048729047441
 30
0.0
  0
POINT
  5
C693
330
98CE
100
AcDbEntity
  8
DEFPOINTS
  6
Continuous
 62
     0
100
AcDbPoint
 10
496.9999999999997
 20
-293.9475881644976
 30
0.0
  0
ENDBLK
  5
98D9
330
98CE
100
AcDbEntity
  8
0
100
AcDbBlockEnd
  0
BLOCK
  5
98E5
330
98DA
100
AcDbEntity
  8
0
100
AcDbBlockBegin
  2
*D12
 70
     1
 10
0.0
 20
0.0
 30
0.0
  3
*D12
  1

  0
LINE
  5
C7C1
330
98DA
100
AcDbEntity
  8
30
  6
Continuous
 62
     0
370
    -2
100
AcDbLine
 10
386.0000000000001
 20
-3.470487290474408
 30
0.0
 11
386.0000000000001
 21
-278.3633814253198
 31
0.0
  0
LINE
  5
C7C2
330
98DA
100
AcDbEntity
  8
30
  6
Continuous
 62
     0
370
    -2
100
AcDbLine
 10
390.0
 20
-52.97048729047421
 30
0.0
 11
390.0
 21
-278.3633814253198
 31
0.0
  0
LINE
  5
C7C3
330
98DA
100
AcDbEntity
  8
30
  6
Continuous
 62
     0
370
    -2
100
AcDbLine
 10
392.0
 20
-277.8633814253196
 30
0.0
 11
394.0
 21
-277.8633814253196
 31
0.0
  0
LINE
  5
C7C4
330
98DA
100
AcDbEntity
  8
30
  6
Continuous
 62
     0
370
    -2
100
AcDbLine
 10
384.0000000000001
 20
-277.8633814253196
 30
0.0
 11
368.4000000000001
 21
-277.8633814253196
 31
0.0
  0
LINE
  5
C7C5
330
98DA
100
AcDbEntity
  8
30
  6
Continuous
 62
     0
370
    -2
100
AcDbLine
 10
390.0
 20
-277.8633814253196
 30
0.0
 11
386.0000000000001
 21
-277.8633814253196
 31
0.0
  0
INSERT
  5
C7C6
330
98DA
100
AcDbEntity
  8
30
  6
Continuous
 62
     0
370
    -2
100
AcDbBlockReference
  2
_OPEN
 10
390.0
 20
-277.8633814253196
 30
0.0
 41
2.0
 42
2.0
 43
2.0
 50
180.0
  0
INSERT
  5
C7C7
330
98DA
100
AcDbEntity
  8
30
  6
Continuous
 62
     0
370
    -2
100
AcDbBlockReference
  2
_OPEN
 10
386.0000000000001
 20
-277.8633814253196
 30
0.0
 41
2.0
 42
2.0
 43
2.0
  0
MTEXT
  5
C7C8
330
98DA
100
AcDbEntity
  8
30
  6
Continuous
 62
     0
100
AcDbMText
 10
375.2000000000001
 20
-271.8633814253198
 30
0.0
 40
6.0
 41
0.0
 71
     5
 72
     1
  1
\A1; 4 
 73
     1
 44
1.0
  0
POINT
  5
C7C9
330
98DA
100
AcDbEntity
  8
DEFPOINTS
  6
Continuous
 62
     0
100
AcDbPoint
 10
386.0000000000001
 20
-0.47048729047441
 30
0.0
  0
POINT
  5
C7CA
330
98DA
100
AcDbEntity
  8
DEFPOINTS
  6
Continuous
 62
     0
100
AcDbPoint
 10
390.0
 20
-49.97048729047421
 30
0.0
  0
POINT
  5
C7CB
330
98DA
100
AcDbEntity
  8
DEFPOINTS
  6
Continuous
 62
     0
100
AcDbPoint
 10
390.0
 20
-277.8633814253196
 30
0.0
  0
ENDBLK
  5
98E6
330
98DA
100
AcDbEntity
  8
0
100
AcDbBlockEnd
  0
BLOCK
  5
98FE
330
98F3
100
AcDbEntity
  8
0
100
AcDbBlockBegin
  2
*D13
 70
     1
 10
0.0
 20
0.0
 30
0.0
  3
*D13
  1

  0
LINE
  5
C85F
330
98F3
100
AcDbEntity
  8
30
  6
Continuous
 62
     0
370
    -2
100
AcDbLine
 10
455.0
 20
-219.9704872904738
 30
0.0
 11
455.0
 21
-247.5663622904738
 31
0.0
  0
LINE
  5
C860
330
98F3
100
AcDbEntity
  8
30
  6
Continuous
 62
     0
370
    -2
100
AcDbLine
 10
463.0
 20
-219.9704872904738
 30
0.0
 11
463.0
 21
-247.5663622904738
 31
0.0
  0
LINE
  5
C861
330
98F3
100
AcDbEntity
  8
30
  6
Continuous
 62
     0
370
    -2
100
AcDbLine
 10
465.0
 20
-247.0663622904738
 30
0.0
 11
467.0
 21
-247.0663622904738
 31
0.0
  0
LINE
  5
C862
330
98F3
100
AcDbEntity
  8
30
  6
Continuous
 62
     0
370
    -2
100
AcDbLine
 10
453.0
 20
-247.0663622904738
 30
0.0
 11
437.3999999999998
 21
-247.0663622904738
 31
0.0
  0
LINE
  5
C863
330
98F3
100
AcDbEntity
  8
30
  6
Continuous
 62
     0
370
    -2
100
AcDbLine
 10
463.0
 20
-247.0663622904738
 30
0.0
 11
455.0
 21
-247.0663622904738
 31
0.0
  0
INSERT
  5
C864
330
98F3
100
AcDbEntity
  8
30
  6
Continuous
 62
     0
370
    -2
100
AcDbBlockReference
  2
_OPEN
 10
463.0
 20
-247.0663622904738
 30
0.0
 41
2.0
 42
2.0
 43
2.0
 50
180.0
  0
INSERT
  5
C865
330
98F3
100
AcDbEntity
  8
30
  6
Continuous
 62
     0
370
    -2
100
AcDbBlockReference
  2
_OPEN
 10
455.0
 20
-247.0663622904738
 30
0.0
 41
2.0
 42
2.0
 43
2.0
  0
MTEXT
  5
C866
330
98F3
100
AcDbEntity
  8
30
  6
Continuous
 62
     0
100
AcDbMText
 10
444.2
 20
-241.0663622904738
 30
0.0
 40
6.0
 41
0.0
 71
     5
 72
     1
  1
\A1; 8 
 73
     1
 44
1.0
  0
POINT
  5
C867
330
98F3
100
AcDbEntity
  8
DEFPOINTS
  6
Continuous
 62
     0
100
AcDbPoint
 10
455.0
 20
-216.9704872904739
 30
0.0
  0
POINT
  5
C868
330
98F3
100
AcDbEntity
  8
DEFPOINTS
  6
Continuous
 62
     0
100
AcDbPoint
 10
463.0
 20
-216.9704872904739
 30
0.0
  0
POINT
  5
C869
330
98F3
100
AcDbEntity
  8
DEFPOINTS
  6
Continuous
 62
     0
100
AcDbPoint
 10
463.0
 20
-247.0663622904738
 30
0.0
  0
ENDBLK
  5
98FF
330
98F3
100
AcDbEntity
  8
0
100
AcDbBlockEnd
  0
BLOCK
  5
9924
330
991A
100
AcDbEntity
  8
0
100
AcDbBlockBegin
  2
*D14
 70
     1
 10
0.0
 20
0.0
 30
0.0
  3
*D14
  1

  0
LINE
  5
C66E
330
991A
100
AcDbEntity
  8
30
  6
Continuous
 62
     0
370
    -2
100
AcDbLine
 10
-35.00000000000044
 20
-624.5708385812681
 30
0.0
 11
-35.00000000000044
 21
-672.1667135812681
 31
0.0
  0
LINE
  5
C66F
330
991A
100
AcDbEntity
  8
30
  6
Continuous
 62
     0
370
    -2
100
AcDbLine
 10
34.99999999999909
 20
-624.5708385812681
 30
0.0
 11
34.99999999999909
 21
-672.1667135812681
 31
0.0
  0
LINE
  5
C670
330
991A
100
AcDbEntity
  8
30
  6
Continuous
 62
     0
370
    -2
100
AcDbLine
 10
-33.00000000000045
 20
-671.6667135812681
 30
0.0
 11
32.99999999999909
 21
-671.6667135812681
 31
0.0
  0
INSERT
  5
C671
330
991A
100
AcDbEntity
  8
30
  6
Continuous
 62
     0
370
    -2
100
AcDbBlockReference
  2
_OPEN
 10
-35.00000000000044
 20
-671.6667135812681
 30
0.0
 41
2.0
 42
2.0
 43
2.0
 50
180.0
  0
INSERT
  5
C672
330
991A
100
AcDbEntity
  8
30
  6
Continuous
 62
     0
370
    -2
100
AcDbBlockReference
  2
_OPEN
 10
34.99999999999909
 20
-671.6667135812681
 30
0.0
 41
2.0
 42
2.0
 43
2.0
  0
MTEXT
  5
C673
330
991A
100
AcDbEntity
  8
30
  6
Continuous
 62
     0
100
AcDbMText
 10
-0.0000000000006782
 20
-665.6667135812681
 30
0.0
 40
6.0
 41
0.0
 71
     5
 72
     1
  1
\A1; 70 
 73
     1
 44
1.0
  0
POINT
  5
C674
330
991A
100
AcDbEntity
  8
DEFPOINTS
  6
Continuous
 62
     0
100
AcDbPoint
 10
-35.00000000000044
 20
-621.5708385812681
 30
0.0
  0
POINT
  5
C675
330
991A
100
AcDbEntity
  8
DEFPOINTS
  6
Continuous
 62
     0
100
AcDbPoint
 10
34.99999999999909
 20
-621.5708385812681
 30
0.0
  0
POINT
  5
C676
330
991A
100
AcDbEntity
  8
DEFPOINTS
  6
Continuous
 62
     0
100
AcDbPoint
 10
34.99999999999909
 20
-671.6667135812681
 30
0.0
  0
ENDBLK
  5
9925
330
991A
100
AcDbEntity
  8
0
100
AcDbBlockEnd
  0
BLOCK
  5
992F
330
9926
100
AcDbEntity
  8
0
100
AcDbBlockBegin
  2
*D15
 70
     1
 10
0.0
 20
0.0
 30
0.0
  3
*D15
  1

  0
LINE
  5
C666
330
9926
100
AcDbEntity
  8
30
  6
Continuous
 62
     0
370
    -2
100
AcDbLine
 10
30.68116247708587
 20
-612.4057885591687
 30
0.0
 11
29.24154995417035
 21
-611.0174385370688
 31
0.0
  0
LINE
  5
C667
330
9926
100
AcDbEntity
  8
30
  6
Continuous
 62
     0
370
    -2
100
AcDbLine
 10
29.24154995417035
 20
-611.0174385370688
 30
0.0
 11
16.24154995417027
 21
-611.0174385370688
 31
0.0
  0
INSERT
  5
C668
330
9926
100
AcDbEntity
  8
30
  6
Continuous
 62
     0
370
    -2
100
AcDbBlockReference
  2
_OPEN
 10
32.12077500000146
 20
-613.7941385812687
 30
0.0
 41
2.0
 42
2.0
 43
2.0
 50
316.0384873416543
  0
MTEXT
  5
C669
330
9926
100
AcDbEntity
  8
30
  6
Continuous
 62
     0
100
AcDbMText
 10
21.24154995417029
 20
-605.017438537069
 30
0.0
 40
6.0
 41
0.0
 71
     5
 72
     1
  1
\A1;\U+22058
 73
     1
 44
1.0
  0
LINE
  5
C66A
330
9926
100
AcDbEntity
  8
30
  6
Continuous
 62
     0
370
    -2
100
AcDbLine
 10
34.91000000000082
 20
-616.5708385812687
 30
0.0
 11
35.09000000000082
 21
-616.5708385812687
 31
0.0
  0
LINE
  5
C66B
330
9926
100
AcDbEntity
  8
30
  6
Continuous
 62
     0
370
    -2
100
AcDbLine
 10
35.00000000000079
 20
-616.6608385812687
 30
0.0
 11
35.00000000000079
 21
-616.4808385812688
 31
0.0
  0
POINT
  5
C66C
330
9926
100
AcDbEntity
  8
DEFPOINTS
  6
Continuous
 62
     0
100
AcDbPoint
 10
32.12077500000146
 20
-613.7941385812687
 30
0.0
  0
POINT
  5
C66D
330
9926
100
AcDbEntity
  8
DEFPOINTS
  6
Continuous
 62
     0
100
AcDbPoint
 10
37.87922500000013
 20
-619.3475385812687
 30
0.0
  0
ENDBLK
  5
9930
330
9926
100
AcDbEntity
  8
0
100
AcDbBlockEnd
  0
BLOCK
  5
9948
330
993E
100
AcDbEntity
  8
0
100
AcDbBlockBegin
  2
*D16
 70
     1
 10
0.0
 20
0.0
 30
0.0
  3
*D16
  1

  0
LINE
  5
C65D
330
993E
100
AcDbEntity
  8
30
  6
Continuous
 62
     0
370
    -2
100
AcDbLine
 10
469.0
 20
-100.720487290474
 30
0.0
 11
469.0
 21
-71.56636229047419
 31
0.0
  0
LINE
  5
C65E
330
993E
100
AcDbEntity
  8
30
  6
Continuous
 62
     0
370
    -2
100
AcDbLine
 10
496.9999999999997
 20
-75.31636229047416
 30
0.0
 11
496.9999999999997
 21
-71.56636229047419
 31
0.0
  0
LINE
  5
C65F
330
993E
100
AcDbEntity
  8
30
  6
Continuous
 62
     0
370
    -2
100
AcDbLine
 10
471.0
 20
-72.06636229047417
 30
0.0
 11
494.9999999999997
 21
-72.06636229047417
 31
0.0
  0
INSERT
  5
C660
330
993E
100
AcDbEntity
  8
30
  6
Continuous
 62
     0
370
    -2
100
AcDbBlockReference
  2
_OPEN
 10
469.0
 20
-72.06636229047417
 30
0.0
 41
2.0
 42
2.0
 43
2.0
 50
180.0
  0
INSERT
  5
C661
330
993E
100
AcDbEntity
  8
30
  6
Continuous
 62
     0
370
    -2
100
AcDbBlockReference
  2
_OPEN
 10
496.9999999999997
 20
-72.06636229047417
 30
0.0
 41
2.0
 42
2.0
 43
2.0
  0
MTEXT
  5
C662
330
993E
100
AcDbEntity
  8
30
  6
Continuous
 62
     0
100
AcDbMText
 10
482.9999999999998
 20
-66.06636229047417
 30
0.0
 40
6.0
 41
0.0
 71
     5
 72
     1
  1
\A1; 28 
 73
     1
 44
1.0
  0
POINT
  5
C663
330
993E
100
AcDbEntity
  8
DEFPOINTS
  6
Continuous
 62
     0
100
AcDbPoint
 10
469.0
 20
-103.720487290474
 30
0.0
  0
POINT
  5
C664
330
993E
100
AcDbEntity
  8
DEFPOINTS
  6
Continuous
 62
     0
100
AcDbPoint
 10
496.9999999999997
 20
-78.31636229047416
 30
0.0
  0
POINT
  5
C665
330
993E
100
AcDbEntity
  8
DEFPOINTS
  6
Continuous
 62
     0
100
AcDbPoint
 10
496.9999999999997
 20
-72.06636229047417
 30
0.0
  0
ENDBLK
  5
9949
330
993E
100
AcDbEntity
  8
0
100
AcDbBlockEnd
  0
BLOCK
  5
9954
330
994A
100
AcDbEntity
  8
0
100
AcDbBlockBegin
  2
*D17
 70
     1
 10
0.0
 20
0.0
 30
0.0
  3
*D17
  1

  0
LINE
  5
C7AE
330
994A
100
AcDbEntity
  8
30
  6
Continuous
 62
     0
370
    -2
100
AcDbLine
 10
510.0
 20
-104.970487290474
 30
0.0
 11
510.0
 21
-71.56636229047419
 31
0.0
  0
LINE
  5
C7AF
330
994A
100
AcDbEntity
  8
30
  6
Continuous
 62
     0
370
    -2
100
AcDbLine
 10
496.9999999999997
 20
-75.31636229047416
 30
0.0
 11
496.9999999999997
 21
-71.56636229047419
 31
0.0
  0
LINE
  5
C7B0
330
994A
100
AcDbEntity
  8
30
  6
Continuous
 62
     0
370
    -2
100
AcDbLine
 10
508.0
 20
-72.06636229047417
 30
0.0
 11
498.9999999999997
 21
-72.06636229047417
 31
0.0
  0
INSERT
  5
C7B1
330
994A
100
AcDbEntity
  8
30
  6
Continuous
 62
     0
370
    -2
100
AcDbBlockReference
  2
_OPEN
 10
510.0
 20
-72.06636229047417
 30
0.0
 41
2.0
 42
2.0
 43
2.0
  0
INSERT
  5
C7B2
330
994A
100
AcDbEntity
  8
30
  6
Continuous
 62
     0
370
    -2
100
AcDbBlockReference
  2
_OPEN
 10
496.9999999999997
 20
-72.06636229047417
 30
0.0
 41
2.0
 42
2.0
 43
2.0
 50
180.0
  0
MTEXT
  5
C7B3
330
994A
100
AcDbEntity
  8
30
  6
Continuous
 62
     0
100
AcDbMText
 10
503.4999999999998
 20
-66.06636229047417
 30
0.0
 40
6.0
 41
0.0
 71
     5
 72
     1
  1
\A1; 13 
 73
     1
 44
1.0
  0
POINT
  5
C7B4
330
994A
100
AcDbEntity
  8
DEFPOINTS
  6
Continuous
 62
     0
100
AcDbPoint
 10
510.0
 20
-107.970487290474
 30
0.0
  0
POINT
  5
C7B5
330
994A
100
AcDbEntity
  8
DEFPOINTS
  6
Continuous
 62
     0
100
AcDbPoint
 10
496.9999999999997
 20
-78.31636229047416
 30
0.0
  0
POINT
  5
C7B6
330
994A
100
AcDbEntity
  8
DEFPOINTS
  6
Continuous
 62
     0
100
AcDbPoint
 10
496.9999999999997
 20
-72.06636229047417
 30
0.0
  0
ENDBLK
  5
9955
330
994A
100
AcDbEntity
  8
0
100
AcDbBlockEnd
  0
BLOCK
  5
998C
330
9982
100
AcDbEntity
  8
0
100
AcDbBlockBegin
  2
*D18
 70
     1
 10
0.0
 20
0.0
 30
0.0
  3
*D18
  1

  0
LINE
  5
C64A
330
9982
100
AcDbEntity
  8
30
  6
Continuous
 62
     0
370
    -2
100
AcDbLine
 10
464.9999999999997
 20
229.0295127095251
 30
0.0
 11
464.9999999999997
 21
253.4336377095249
 31
0.0
  0
LINE
  5
C64B
330
9982
100
AcDbEntity
  8
30
  6
Continuous
 62
     0
370
    -2
100
AcDbLine
 10
496.9999999999997
 20
149.0295127095252
 30
0.0
 11
496.9999999999997
 21
253.4336377095249
 31
0.0
  0
LINE
  5
C64C
330
9982
100
AcDbEntity
  8
30
  6
Continuous
 62
     0
370
    -2
100
AcDbLine
 10
466.9999999999997
 20
252.9336377095249
 30
0.0
 11
494.9999999999997
 21
252.9336377095249
 31
0.0
  0
INSERT
  5
C64D
330
9982
100
AcDbEntity
  8
30
  6
Continuous
 62
     0
370
    -2
100
AcDbBlockReference
  2
_OPEN
 10
464.9999999999997
 20
252.9336377095249
 30
0.0
 41
2.0
 42
2.0
 43
2.0
 50
180.0
  0
INSERT
  5
C64E
330
9982
100
AcDbEntity
  8
30
  6
Continuous
 62
     0
370
    -2
100
AcDbBlockReference
  2
_OPEN
 10
496.9999999999997
 20
252.9336377095249
 30
0.0
 41
2.0
 42
2.0
 43
2.0
  0
MTEXT
  5
C64F
330
9982
100
AcDbEntity
  8
30
  6
Continuous
 62
     0
100
AcDbMText
 10
480.9999999999996
 20
258.9336377095249
 30
0.0
 40
6.0
 41
0.0
 71
     5
 72
     1
  1
\A1; 32 
 73
     1
 44
1.0
  0
POINT
  5
C650
330
9982
100
AcDbEntity
  8
DEFPOINTS
  6
Continuous
 62
     0
100
AcDbPoint
 10
464.9999999999997
 20
226.029512709525
 30
0.0
  0
POINT
  5
C651
330
9982
100
AcDbEntity
  8
DEFPOINTS
  6
Continuous
 62
     0
100
AcDbPoint
 10
496.9999999999997
 20
146.029512709525
 30
0.0
  0
POINT
  5
C652
330
9982
100
AcDbEntity
  8
DEFPOINTS
  6
Continuous
 62
     0
100
AcDbPoint
 10
496.9999999999997
 20
252.9336377095249
 30
0.0
  0
ENDBLK
  5
998D
330
9982
100
AcDbEntity
  8
0
100
AcDbBlockEnd
  0
BLOCK
  5
9999
330
998E
100
AcDbEntity
  8
0
100
AcDbBlockBegin
  2
*D19
 70
     1
 10
0.0
 20
0.0
 30
0.0
  3
*D19
  1

  0
LINE
  5
C7A3
330
998E
100
AcDbEntity
  8
30
  6
Continuous
 62
     0
370
    -2
100
AcDbLine
 10
457.0
 20
229.0295127095251
 30
0.0
 11
457.0
 21
253.4336377095249
 31
0.0
  0
LINE
  5
C7A4
330
998E
100
AcDbEntity
  8
30
  6
Continuous
 62
     0
370
    -2
100
AcDbLine
 10
464.9999999999997
 20
229.0295127095251
 30
0.0
 11
464.9999999999997
 21
253.4336377095249
 31
0.0
  0
LINE
  5
C7A5
330
998E
100
AcDbEntity
  8
30
  6
Continuous
 62
     0
370
    -2
100
AcDbLine
 10
455.0
 20
252.9336377095249
 30
0.0
 11
453.0
 21
252.9336377095249
 31
0.0
  0
LINE
  5
C7A6
330
998E
100
AcDbEntity
  8
30
  6
Continuous
 62
     0
370
    -2
100
AcDbLine
 10
466.9999999999997
 20
252.9336377095249
 30
0.0
 11
468.9999999999995
 21
252.9336377095249
 31
0.0
  0
MTEXT
  5
C7A7
330
998E
100
AcDbEntity
  8
30
  6
Continuous
 62
     0
100
AcDbMText
 10
458.8092461915421
 20
257.8529569285765
 30
0.0
 40
6.0
 41
0.0
 71
     5
 72
     1
  1
\A1; 8 
 73
     1
 44
1.0
  0
LINE
  5
C7A8
330
998E
100
AcDbEntity
  8
30
  6
Continuous
 62
     0
370
    -2
100
AcDbLine
 10
457.0
 20
252.9336377095249
 30
0.0
 11
464.9999999999997
 21
252.9336377095249
 31
0.0
  0
INSERT
  5
C7A9
330
998E
100
AcDbEntity
  8
30
  6
Continuous
 62
     0
370
    -2
100
AcDbBlockReference
  2
_OPEN
 10
457.0
 20
252.9336377095249
 30
0.0
 41
2.0
 42
2.0
 43
2.0
  0
INSERT
  5
C7AA
330
998E
100
AcDbEntity
  8
30
  6
Continuous
 62
     0
370
    -2
100
AcDbBlockReference
  2
_OPEN
 10
464.9999999999997
 20
252.9336377095249
 30
0.0
 41
2.0
 42
2.0
 43
2.0
 50
180.0
  0
POINT
  5
C7AB
330
998E
100
AcDbEntity
  8
DEFPOINTS
  6
Continuous
 62
     0
100
AcDbPoint
 10
457.0
 20
226.029512709525
 30
0.0
  0
POINT
  5
C7AC
330
998E
100
AcDbEntity
  8
DEFPOINTS
  6
Continuous
 62
     0
100
AcDbPoint
 10
464.9999999999997
 20
226.029512709525
 30
0.0
  0
POINT
  5
C7AD
330
998E
100
AcDbEntity
  8
DEFPOINTS
  6
Continuous
 62
     0
100
AcDbPoint
 10
464.9999999999997
 20
252.9336377095249
 30
0.0
  0
ENDBLK
  5
999A
330
998E
100
AcDbEntity
  8
0
100
AcDbBlockEnd
  0
BLOCK
  5
99A6
330
999B
100
AcDbEntity
  8
0
100
AcDbBlockBegin
  2
*D20
 70
     1
 10
0.0
 20
0.0
 30
0.0
  3
*D20
  1

  0
LINE
  5
C637
330
999B
100
AcDbEntity
  8
30
  6
Continuous
 62
     0
370
    -2
100
AcDbLine
 10
317.2
 20
-453.5708385812683
 30
0.0
 11
266.1460999999999
 21
-453.5708385812683
 31
0.0
  0
LINE
  5
C638
330
999B
100
AcDbEntity
  8
30
  6
Continuous
 62
     0
370
    -2
100
AcDbLine
 10
317.2
 20
-545.5708385812681
 30
0.0
 11
266.1460999999999
 21
-545.5708385812681
 31
0.0
  0
LINE
  5
C639
330
999B
100
AcDbEntity
  8
30
  6
Continuous
 62
     0
370
    -2
100
AcDbLine
 10
266.6460999999999
 20
-455.5708385812684
 30
0.0
 11
266.6460999999999
 21
-543.5708385812681
 31
0.0
  0
INSERT
  5
C63A
330
999B
100
AcDbEntity
  8
30
  6
Continuous
 62
     0
370
    -2
100
AcDbBlockReference
  2
_OPEN
 10
266.6460999999999
 20
-453.5708385812683
 30
0.0
 41
2.0
 42
2.0
 43
2.0
 50
90.0
  0
INSERT
  5
C63B
330
999B
100
AcDbEntity
  8
30
  6
Continuous
 62
     0
370
    -2
100
AcDbBlockReference
  2
_OPEN
 10
266.6460999999999
 20
-545.5708385812681
 30
0.0
 41
2.0
 42
2.0
 43
2.0
 50
270.0
  0
MTEXT
  5
C63C
330
999B
100
AcDbEntity
  8
30
  6
Continuous
 62
     0
100
AcDbMText
 10
260.6460999999999
 20
-499.5708385812681
 30
0.0
 40
6.0
 41
0.0
 71
     5
 72
     1
  1
\A1; 92 
 11
0.0000000000000001
 21
1.0
 31
0.0
 73
     1
 44
1.0
  0
POINT
  5
C63D
330
999B
100
AcDbEntity
  8
DEFPOINTS
  6
Continuous
 62
     0
100
AcDbPoint
 10
320.1999999999998
 20
-453.5708385812683
 30
0.0
  0
POINT
  5
C63E
330
999B
100
AcDbEntity
  8
DEFPOINTS
  6
Continuous
 62
     0
100
AcDbPoint
 10
320.1999999999998
 20
-545.5708385812681
 30
0.0
  0
POINT
  5
C63F
330
999B
100
AcDbEntity
  8
DEFPOINTS
  6
Continuous
 62
     0
100
AcDbPoint
 10
266.6460999999999
 20
-545.5708385812681
 30
0.0
  0
ENDBLK
  5
99A7
330
999B
100
AcDbEntity
  8
0
100
AcDbBlockEnd
  0
BLOCK
  5
99D6
330
99CC
100
AcDbEntity
  8
0
100
AcDbBlockBegin
  2
*D21
 70
     1
 10
0.0
 20
0.0
 30
0.0
  3
*D21
  1

  0
LINE
  5
C743
330
99CC
100
AcDbEntity
  8
30
  6
Continuous
 62
     0
370
    -2
100
AcDbLine
 10
352.0000000000004
 20
2.029512709525683
 30
0.0
 11
352.0000000000004
 21
-315.5512664941683
 31
0.0
  0
LINE
  5
C744
330
99CC
100
AcDbEntity
  8
30
  6
Continuous
 62
     0
370
    -2
100
AcDbLine
 10
496.9999999999997
 20
-139.9704872904738
 30
0.0
 11
496.9999999999997
 21
-315.5512664941683
 31
0.0
  0
LINE
  5
C745
330
99CC
100
AcDbEntity
  8
30
  6
Continuous
 62
     0
370
    -2
100
AcDbLine
 10
354.0000000000004
 20
-315.0512664941683
 30
0.0
 11
494.9999999999997
 21
-315.0512664941683
 31
0.0
  0
INSERT
  5
C746
330
99CC
100
AcDbEntity
  8
30
  6
Continuous
 62
     0
370
    -2
100
AcDbBlockReference
  2
_OPEN
 10
352.0000000000004
 20
-315.0512664941683
 30
0.0
 41
2.0
 42
2.0
 43
2.0
 50
180.0
  0
INSERT
  5
C747
330
99CC
100
AcDbEntity
  8
30
  6
Continuous
 62
     0
370
    -2
100
AcDbBlockReference
  2
_OPEN
 10
496.9999999999997
 20
-315.0512664941683
 30
0.0
 41
2.0
 42
2.0
 43
2.0
  0
MTEXT
  5
C748
330
99CC
100
AcDbEntity
  8
30
  6
Continuous
 62
     0
100
AcDbMText
 10
424.5
 20
-309.0512664941683
 30
0.0
 40
6.0
 41
0.0
 71
     5
 72
     1
  1
\A1; 145 
 73
     1
 44
1.0
  0
POINT
  5
C749
330
99CC
100
AcDbEntity
  8
DEFPOINTS
  6
Continuous
 62
     0
100
AcDbPoint
 10
352.0000000000004
 20
5.029512709525683
 30
0.0
  0
POINT
  5
C74A
330
99CC
100
AcDbEntity
  8
DEFPOINTS
  6
Continuous
 62
     0
100
AcDbPoint
 10
496.9999999999997
 20
-136.9704872904738
 30
0.0
  0
POINT
  5
C74B
330
99CC
100
AcDbEntity
  8
DEFPOINTS
  6
Continuous
 62
     0
100
AcDbPoint
 10
496.9999999999997
 20
-315.0512664941683
 30
0.0
  0
ENDBLK
  5
99D7
330
99CC
100
AcDbEntity
  8
0
100
AcDbBlockEnd
  0
BLOCK
  5
99FA
330
99F0
100
AcDbEntity
  8
0
100
AcDbBlockBegin
  2
*D22
 70
     1
 10
0.0
 20
0.0
 30
0.0
  3
*D22
  1

  0
LINE
  5
C73A
330
99F0
100
AcDbEntity
  8
30
  6
Continuous
 62
     0
370
    -2
100
AcDbLine
 10
-69.99999999999954
 20
-224.9704872904738
 30
0.0
 11
-69.99999999999954
 21
-247.5663622904738
 31
0.0
  0
LINE
  5
C73B
330
99F0
100
AcDbEntity
  8
30
  6
Continuous
 62
     0
370
    -2
100
AcDbLine
 10
0.0000000000004545
 20
-199.9704872904739
 30
0.0
 11
0.0000000000004516
 21
-247.5663622904738
 31
0.0
  0
LINE
  5
C73C
330
99F0
100
AcDbEntity
  8
30
  6
Continuous
 62
     0
370
    -2
100
AcDbLine
 10
-67.99999999999954
 20
-247.0663622904738
 30
0.0
 11
-1.999999999999548
 21
-247.0663622904738
 31
0.0
  0
INSERT
  5
C73D
330
99F0
100
AcDbEntity
  8
30
  6
Continuous
 62
     0
370
    -2
100
AcDbBlockReference
  2
_OPEN
 10
-69.99999999999954
 20
-247.0663622904738
 30
0.0
 41
2.0
 42
2.0
 43
2.0
 50
180.0
  0
INSERT
  5
C73E
330
99F0
100
AcDbEntity
  8
30
  6
Continuous
 62
     0
370
    -2
100
AcDbBlockReference
  2
_OPEN
 10
0.0000000000004516
 20
-247.0663622904738
 30
0.0
 41
2.0
 42
2.0
 43
2.0
  0
MTEXT
  5
C73F
330
99F0
100
AcDbEntity
  8
30
  6
Continuous
 62
     0
100
AcDbMText
 10
-34.99999999999953
 20
-241.0663622904738
 30
0.0
 40
6.0
 41
0.0
 71
     5
 72
     1
  1
\A1; 70 
 73
     1
 44
1.0
  0
POINT
  5
C740
330
99F0
100
AcDbEntity
  8
DEFPOINTS
  6
Continuous
 62
     0
100
AcDbPoint
 10
-69.99999999999954
 20
-221.9704872904738
 30
0.0
  0
POINT
  5
C741
330
99F0
100
AcDbEntity
  8
DEFPOINTS
  6
Continuous
 62
     0
100
AcDbPoint
 10
0.0000000000004547
 20
-196.9704872904739
 30
0.0
  0
POINT
  5
C742
330
99F0
100
AcDbEntity
  8
DEFPOINTS
  6
Continuous
 62
     0
100
AcDbPoint
 10
0.0000000000004516
 20
-247.0663622904738
 30
0.0
  0
ENDBLK
  5
99FB
330
99F0
100
AcDbEntity
  8
0
100
AcDbBlockEnd
  0
BLOCK
  5
9A06
330
99FC
100
AcDbEntity
  8
0
100
AcDbBlockBegin
  2
*D23
 70
     1
 10
0.0
 20
0.0
 30
0.0
  3
*D23
  1

  0
LINE
  5
C731
330
99FC
100
AcDbEntity
  8
30
  6
Continuous
 62
     0
370
    -2
100
AcDbLine
 10
-0.0000000000000002
 20
-214.970487290474
 30
0.0
 11
-0.0000000000000022
 21
-247.5663622904738
 31
0.0
  0
LINE
  5
C732
330
99FC
100
AcDbEntity
  8
30
  6
Continuous
 62
     0
370
    -2
100
AcDbLine
 10
70.0
 20
-224.9704872904738
 30
0.0
 11
70.0
 21
-247.5663622904738
 31
0.0
  0
LINE
  5
C733
330
99FC
100
AcDbEntity
  8
30
  6
Continuous
 62
     0
370
    -2
100
AcDbLine
 10
1.999999999999995
 20
-247.0663622904738
 30
0.0
 11
68.0
 21
-247.0663622904738
 31
0.0
  0
INSERT
  5
C734
330
99FC
100
AcDbEntity
  8
30
  6
Continuous
 62
     0
370
    -2
100
AcDbBlockReference
  2
_OPEN
 10
-0.0000000000000021
 20
-247.0663622904738
 30
0.0
 41
2.0
 42
2.0
 43
2.0
 50
180.0
  0
INSERT
  5
C735
330
99FC
100
AcDbEntity
  8
30
  6
Continuous
 62
     0
370
    -2
100
AcDbBlockReference
  2
_OPEN
 10
70.0
 20
-247.0663622904738
 30
0.0
 41
2.0
 42
2.0
 43
2.0
  0
MTEXT
  5
C736
330
99FC
100
AcDbEntity
  8
30
  6
Continuous
 62
     0
100
AcDbMText
 10
35.0
 20
-241.0663622904738
 30
0.0
 40
6.0
 41
0.0
 71
     5
 72
     1
  1
\A1; 70 
 73
     1
 44
1.0
  0
POINT
  5
C737
330
99FC
100
AcDbEntity
  8
DEFPOINTS
  6
Continuous
 62
     0
100
AcDbPoint
 10
0.0
 20
-211.970487290474
 30
0.0
  0
POINT
  5
C738
330
99FC
100
AcDbEntity
  8
DEFPOINTS
  6
Continuous
 62
     0
100
AcDbPoint
 10
70.0
 20
-221.9704872904738
 30
0.0
  0
POINT
  5
C739
330
99FC
100
AcDbEntity
  8
DEFPOINTS
  6
Continuous
 62
     0
100
AcDbPoint
 10
70.0
 20
-247.0663622904738
 30
0.0
  0
ENDBLK
  5
9A07
330
99FC
100
AcDbEntity
  8
0
100
AcDbBlockEnd
  0
BLOCK
  5
9A12
330
9A08
100
AcDbEntity
  8
0
100
AcDbBlockBegin
  2
*D24
 70
     1
 10
0.0
 20
0.0
 30
0.0
  3
*D24
  1

  0
LINE
  5
C728
330
9A08
100
AcDbEntity
  8
30
  6
Continuous
 62
     0
370
    -2
100
AcDbLine
 10
70.0
 20
-224.9704872904738
 30
0.0
 11
70.0
 21
-247.6433503083983
 31
0.0
  0
LINE
  5
C729
330
9A08
100
AcDbEntity
  8
30
  6
Continuous
 62
     0
370
    -2
100
AcDbLine
 10
139.9935351126159
 20
-225.0474753083984
 30
0.0
 11
139.9935351126159
 21
-247.6433503083983
 31
0.0
  0
LINE
  5
C72A
330
9A08
100
AcDbEntity
  8
30
  6
Continuous
 62
     0
370
    -2
100
AcDbLine
 10
72.0
 20
-247.1433503083983
 30
0.0
 11
137.9935351126159
 21
-247.1433503083983
 31
0.0
  0
INSERT
  5
C72B
330
9A08
100
AcDbEntity
  8
30
  6
Continuous
 62
     0
370
    -2
100
AcDbBlockReference
  2
_OPEN
 10
70.0
 20
-247.1433503083983
 30
0.0
 41
2.0
 42
2.0
 43
2.0
 50
180.0
  0
INSERT
  5
C72C
330
9A08
100
AcDbEntity
  8
30
  6
Continuous
 62
     0
370
    -2
100
AcDbBlockReference
  2
_OPEN
 10
139.9935351126159
 20
-247.1433503083983
 30
0.0
 41
2.0
 42
2.0
 43
2.0
  0
MTEXT
  5
C72D
330
9A08
100
AcDbEntity
  8
30
  6
Continuous
 62
     0
100
AcDbMText
 10
104.9967675563079
 20
-241.1433503083983
 30
0.0
 40
6.0
 41
0.0
 71
     5
 72
     1
  1
\A1; 70 
 73
     1
 44
1.0
  0
POINT
  5
C72E
330
9A08
100
AcDbEntity
  8
DEFPOINTS
  6
Continuous
 62
     0
100
AcDbPoint
 10
70.0
 20
-221.9704872904738
 30
0.0
  0
POINT
  5
C72F
330
9A08
100
AcDbEntity
  8
DEFPOINTS
  6
Continuous
 62
     0
100
AcDbPoint
 10
139.9935351126159
 20
-222.0474753083983
 30
0.0
  0
POINT
  5
C730
330
9A08
100
AcDbEntity
  8
DEFPOINTS
  6
Continuous
 62
     0
100
AcDbPoint
 10
139.9935351126159
 20
-247.1433503083983
 30
0.0
  0
ENDBLK
  5
9A13
330
9A08
100
AcDbEntity
  8
0
100
AcDbBlockEnd
  0
BLOCK
  5
9A1E
330
9A14
100
AcDbEntity
  8
0
100
AcDbBlockBegin
  2
*D25
 70
     1
 10
0.0
 20
0.0
 30
0.0
  3
*D25
  1

  0
LINE
  5
C71F
330
9A14
100
AcDbEntity
  8
30
  6
Continuous
 62
     0
370
    -2
100
AcDbLine
 10
-104.9999999999994
 20
-139.9704872904738
 30
0.0
 11
-104.9999999999994
 21
-277.5663622904736
 31
0.0
  0
LINE
  5
C720
330
9A14
100
AcDbEntity
  8
30
  6
Continuous
 62
     0
370
    -2
100
AcDbLine
 10
0.0000000000004545
 20
-199.9704872904739
 30
0.0
 11
0.0000000000004498
 21
-277.5663622904736
 31
0.0
  0
LINE
  5
C721
330
9A14
100
AcDbEntity
  8
30
  6
Continuous
 62
     0
370
    -2
100
AcDbLine
 10
-102.9999999999995
 20
-277.0663622904736
 30
0.0
 11
-1.999999999999548
 21
-277.0663622904736
 31
0.0
  0
INSERT
  5
C722
330
9A14
100
AcDbEntity
  8
30
  6
Continuous
 62
     0
370
    -2
100
AcDbBlockReference
  2
_OPEN
 10
-104.9999999999994
 20
-277.0663622904736
 30
0.0
 41
2.0
 42
2.0
 43
2.0
 50
180.0
  0
INSERT
  5
C723
330
9A14
100
AcDbEntity
  8
30
  6
Continuous
 62
     0
370
    -2
100
AcDbBlockReference
  2
_OPEN
 10
0.0000000000004498
 20
-277.0663622904736
 30
0.0
 41
2.0
 42
2.0
 43
2.0
  0
MTEXT
  5
C724
330
9A14
100
AcDbEntity
  8
30
  6
Continuous
 62
     0
100
AcDbMText
 10
-52.49999999999953
 20
-271.0663622904736
 30
0.0
 40
6.0
 41
0.0
 71
     5
 72
     1
  1
\A1; 105 
 73
     1
 44
1.0
  0
POINT
  5
C725
330
9A14
100
AcDbEntity
  8
DEFPOINTS
  6
Continuous
 62
     0
100
AcDbPoint
 10
-104.9999999999994
 20
-136.9704872904738
 30
0.0
  0
POINT
  5
C726
330
9A14
100
AcDbEntity
  8
DEFPOINTS
  6
Continuous
 62
     0
100
AcDbPoint
 10
0.0000000000004547
 20
-196.9704872904739
 30
0.0
  0
POINT
  5
C727
330
9A14
100
AcDbEntity
  8
DEFPOINTS
  6
Continuous
 62
     0
100
AcDbPoint
 10
0.0000000000004498
 20
-277.0663622904736
 30
0.0
  0
ENDBLK
  5
9A1F
330
9A14
100
AcDbEntity
  8
0
100
AcDbBlockEnd
  0
BLOCK
  5
9A2A
330
9A20
100
AcDbEntity
  8
0
100
AcDbBlockBegin
  2
*D26
 70
     1
 10
0.0
 20
0.0
 30
0.0
  3
*D26
  1

  0
LINE
  5
C716
330
9A20
100
AcDbEntity
  8
30
  6
Continuous
 62
     0
370
    -2
100
AcDbLine
 10
0.0000000000004545
 20
-199.9704872904739
 30
0.0
 11
0.0000000000004498
 21
-277.6433503083981
 31
0.0
  0
LINE
  5
C717
330
9A20
100
AcDbEntity
  8
30
  6
Continuous
 62
     0
370
    -2
100
AcDbLine
 10
174.9935351126158
 20
-140.0474753083985
 30
0.0
 11
174.9935351126158
 21
-277.6433503083981
 31
0.0
  0
LINE
  5
C718
330
9A20
100
AcDbEntity
  8
30
  6
Continuous
 62
     0
370
    -2
100
AcDbLine
 10
2.000000000000448
 20
-277.1433503083981
 30
0.0
 11
172.9935351126158
 21
-277.1433503083981
 31
0.0
  0
INSERT
  5
C719
330
9A20
100
AcDbEntity
  8
30
  6
Continuous
 62
     0
370
    -2
100
AcDbBlockReference
  2
_OPEN
 10
0.0000000000004498
 20
-277.1433503083981
 30
0.0
 41
2.0
 42
2.0
 43
2.0
 50
180.0
  0
INSERT
  5
C71A
330
9A20
100
AcDbEntity
  8
30
  6
Continuous
 62
     0
370
    -2
100
AcDbBlockReference
  2
_OPEN
 10
174.9935351126158
 20
-277.1433503083981
 30
0.0
 41
2.0
 42
2.0
 43
2.0
  0
MTEXT
  5
C71B
330
9A20
100
AcDbEntity
  8
30
  6
Continuous
 62
     0
100
AcDbMText
 10
87.49676755630817
 20
-271.1433503083981
 30
0.0
 40
6.0
 41
0.0
 71
     5
 72
     1
  1
\A1; 175 
 73
     1
 44
1.0
  0
POINT
  5
C71C
330
9A20
100
AcDbEntity
  8
DEFPOINTS
  6
Continuous
 62
     0
100
AcDbPoint
 10
0.0000000000004547
 20
-196.9704872904739
 30
0.0
  0
POINT
  5
C71D
330
9A20
100
AcDbEntity
  8
DEFPOINTS
  6
Continuous
 62
     0
100
AcDbPoint
 10
174.9935351126158
 20
-137.0474753083985
 30
0.0
  0
POINT
  5
C71E
330
9A20
100
AcDbEntity
  8
DEFPOINTS
  6
Continuous
 62
     0
100
AcDbPoint
 10
174.9935351126158
 20
-277.1433503083981
 30
0.0
  0
ENDBLK
  5
9A2B
330
9A20
100
AcDbEntity
  8
0
100
AcDbBlockEnd
  0
BLOCK
  5
9A36
330
9A2C
100
AcDbEntity
  8
0
100
AcDbBlockBegin
  2
*D27
 70
     1
 10
0.0
 20
0.0
 30
0.0
  3
*D27
  1

  0
LINE
  5
C70D
330
9A2C
100
AcDbEntity
  8
30
  6
Continuous
 62
     0
370
    -2
100
AcDbLine
 10
-104.9999999999994
 20
-139.9704872904738
 30
0.0
 11
-104.9999999999994
 21
-307.6433503083981
 31
0.0
  0
LINE
  5
C70E
330
9A2C
100
AcDbEntity
  8
30
  6
Continuous
 62
     0
370
    -2
100
AcDbLine
 10
174.9935351126158
 20
-140.0474753083985
 30
0.0
 11
174.9935351126158
 21
-307.6433503083981
 31
0.0
  0
LINE
  5
C70F
330
9A2C
100
AcDbEntity
  8
30
  6
Continuous
 62
     0
370
    -2
100
AcDbLine
 10
-102.9999999999995
 20
-307.143350308398
 30
0.0
 11
172.9935351126158
 21
-307.143350308398
 31
0.0
  0
INSERT
  5
C710
330
9A2C
100
AcDbEntity
  8
30
  6
Continuous
 62
     0
370
    -2
100
AcDbBlockReference
  2
_OPEN
 10
-104.9999999999994
 20
-307.143350308398
 30
0.0
 41
2.0
 42
2.0
 43
2.0
 50
180.0
  0
INSERT
  5
C711
330
9A2C
100
AcDbEntity
  8
30
  6
Continuous
 62
     0
370
    -2
100
AcDbBlockReference
  2
_OPEN
 10
174.9935351126158
 20
-307.143350308398
 30
0.0
 41
2.0
 42
2.0
 43
2.0
  0
MTEXT
  5
C712
330
9A2C
100
AcDbEntity
  8
30
  6
Continuous
 62
     0
100
AcDbMText
 10
34.99676755630817
 20
-301.1433503083981
 30
0.0
 40
6.0
 41
0.0
 71
     5
 72
     1
  1
\A1; 280 
 73
     1
 44
1.0
  0
POINT
  5
C713
330
9A2C
100
AcDbEntity
  8
DEFPOINTS
  6
Continuous
 62
     0
100
AcDbPoint
 10
-104.9999999999994
 20
-136.9704872904738
 30
0.0
  0
POINT
  5
C714
330
9A2C
100
AcDbEntity
  8
DEFPOINTS
  6
Continuous
 62
     0
100
AcDbPoint
 10
174.9935351126158
 20
-137.0474753083985
 30
0.0
  0
POINT
  5
C715
330
9A2C
100
AcDbEntity
  8
DEFPOINTS
  6
Continuous
 62
     0
100
AcDbPoint
 10
174.9935351126158
 20
-307.143350308398
 30
0.0
  0
ENDBLK
  5
9A37
330
9A2C
100
AcDbEntity
  8
0
100
AcDbBlockEnd
  0
BLOCK
  5
9A51
330
9A45
100
AcDbEntity
  8
0
100
AcDbBlockBegin
  2
*D28
 70
     1
 10
0.0
 20
0.0
 30
0.0
  3
*D28
  1

  0
LINE
  5
C76F
330
9A45
100
AcDbEntity
  8
30
  6
Continuous
 62
     0
370
    -2
100
AcDbLine
 10
167.9935351126155
 20
-212.0474753083985
 30
0.0
 11
198.9287293623583
 21
-212.0474753083985
 31
0.0
  0
LINE
  5
C770
330
9A45
100
AcDbEntity
  8
30
  6
Continuous
 62
     0
370
    -2
100
AcDbLine
 10
147.9935351126155
 20
-197.0474753083983
 30
0.0
 11
198.9287293623583
 21
-197.0474753083983
 31
0.0
  0
LINE
  5
C771
330
9A45
100
AcDbEntity
  8
30
  6
Continuous
 62
     0
370
    -2
100
AcDbLine
 10
198.428729362358
 20
-210.0474753083985
 30
0.0
 11
198.428729362358
 21
-199.0474753083983
 31
0.0
  0
INSERT
  5
C772
330
9A45
100
AcDbEntity
  8
30
  6
Continuous
 62
     0
370
    -2
100
AcDbBlockReference
  2
_OPEN
 10
198.428729362358
 20
-212.0474753083985
 30
0.0
 41
2.0
 42
2.0
 43
2.0
 50
270.0
  0
INSERT
  5
C773
330
9A45
100
AcDbEntity
  8
30
  6
Continuous
 62
     0
370
    -2
100
AcDbBlockReference
  2
_OPEN
 10
198.428729362358
 20
-197.0474753083983
 30
0.0
 41
2.0
 42
2.0
 43
2.0
 50
90.0
  0
MTEXT
  5
C774
330
9A45
100
AcDbEntity
  8
30
  6
Continuous
 62
     0
100
AcDbMText
 10
192.4287293623583
 20
-207.9525246916014
 30
0.0
 40
6.0
 41
0.0
 71
     5
 72
     1
  1
\A1; 15 
 11
0.0000000000000001
 21
1.0
 31
0.0
 73
     1
 44
1.0
  0
POINT
  5
C775
330
9A45
100
AcDbEntity
  8
DEFPOINTS
  6
Continuous
 62
     0
100
AcDbPoint
 10
164.9935351126155
 20
-212.0474753083985
 30
0.0
  0
POINT
  5
C776
330
9A45
100
AcDbEntity
  8
DEFPOINTS
  6
Continuous
 62
     0
100
AcDbPoint
 10
144.9935351126155
 20
-197.0474753083983
 30
0.0
  0
POINT
  5
C777
330
9A45
100
AcDbEntity
  8
DEFPOINTS
  6
Continuous
 62
     0
100
AcDbPoint
 10
198.428729362358
 20
-197.0474753083983
 30
0.0
  0
ENDBLK
  5
9A52
330
9A45
100
AcDbEntity
  8
0
100
AcDbBlockEnd
  0
BLOCK
  5
9A5D
330
9A53
100
AcDbEntity
  8
0
100
AcDbBlockBegin
  2
*D29
 70
     1
 10
0.0
 20
0.0
 30
0.0
  3
*D29
  1

  0
LINE
  5
C6F9
330
9A53
100
AcDbEntity
  8
30
  6
Continuous
 62
     0
370
    -2
100
AcDbLine
 10
352.0000000000004
 20
2.029512709525683
 30
0.0
 11
352.0000000000004
 21
-315.8553217315688
 31
0.0
  0
LINE
  5
C6FA
330
9A53
100
AcDbEntity
  8
30
  6
Continuous
 62
     0
370
    -2
100
AcDbLine
 10
271.4989300000004
 20
2.029512709525683
 30
0.0
 11
271.4989300000004
 21
-315.8553217315688
 31
0.0
  0
LINE
  5
C6FB
330
9A53
100
AcDbEntity
  8
30
  6
Continuous
 62
     0
370
    -2
100
AcDbLine
 10
350.0000000000003
 20
-315.3553217315689
 30
0.0
 11
273.4989300000004
 21
-315.3553217315689
 31
0.0
  0
INSERT
  5
C6FC
330
9A53
100
AcDbEntity
  8
30
  6
Continuous
 62
     0
370
    -2
100
AcDbBlockReference
  2
_OPEN
 10
352.0000000000004
 20
-315.3553217315689
 30
0.0
 41
2.0
 42
2.0
 43
2.0
  0
INSERT
  5
C6FD
330
9A53
100
AcDbEntity
  8
30
  6
Continuous
 62
     0
370
    -2
100
AcDbBlockReference
  2
_OPEN
 10
271.4989300000004
 20
-315.3553217315689
 30
0.0
 41
2.0
 42
2.0
 43
2.0
 50
180.0
  0
MTEXT
  5
C6FE
330
9A53
100
AcDbEntity
  8
30
  6
Continuous
 62
     0
100
AcDbMText
 10
311.7494650000003
 20
-309.3553217315686
 30
0.0
 40
6.0
 41
0.0
 71
     5
 72
     1
  1
\A1; 80.5 
 73
     1
 44
1.0
  0
POINT
  5
C6FF
330
9A53
100
AcDbEntity
  8
DEFPOINTS
  6
Continuous
 62
     0
100
AcDbPoint
 10
352.0000000000004
 20
5.029512709525683
 30
0.0
  0
POINT
  5
C700
330
9A53
100
AcDbEntity
  8
DEFPOINTS
  6
Continuous
 62
     0
100
AcDbPoint
 10
271.4989300000004
 20
5.029512709525683
 30
0.0
  0
POINT
  5
C701
330
9A53
100
AcDbEntity
  8
DEFPOINTS
  6
Continuous
 62
     0
100
AcDbPoint
 10
271.4989300000004
 20
-315.3553217315689
 30
0.0
  0
ENDBLK
  5
9A5E
330
9A53
100
AcDbEntity
  8
0
100
AcDbBlockEnd
  0
BLOCK
  5
9A76
330
9A6B
100
AcDbEntity
  8
0
100
AcDbBlockBegin
  2
*D30
 70
     1
 10
0.0
 20
0.0
 30
0.0
  3
*D30
  1

  0
LINE
  5
C6F0
330
9A6B
100
AcDbEntity
  8
30
  6
Continuous
 62
     0
370
    -2
100
AcDbLine
 10
-107.9999999999994
 20
141.0295127095253
 30
0.0
 11
-105.4999999999995
 21
141.0295127095253
 31
0.0
  0
LINE
  5
C6F1
330
9A6B
100
AcDbEntity
  8
30
  6
Continuous
 62
     0
370
    -2
100
AcDbLine
 10
-44.99999999999977
 20
251.029512709525
 30
0.0
 11
-105.4999999999995
 21
251.029512709525
 31
0.0
  0
LINE
  5
C6F2
330
9A6B
100
AcDbEntity
  8
30
  6
Continuous
 62
     0
370
    -2
100
AcDbLine
 10
-104.9999999999994
 20
143.0295127095253
 30
0.0
 11
-104.9999999999994
 21
249.029512709525
 31
0.0
  0
INSERT
  5
C6F3
330
9A6B
100
AcDbEntity
  8
30
  6
Continuous
 62
     0
370
    -2
100
AcDbBlockReference
  2
_OPEN
 10
-104.9999999999994
 20
141.0295127095253
 30
0.0
 41
2.0
 42
2.0
 43
2.0
 50
270.0
  0
INSERT
  5
C6F4
330
9A6B
100
AcDbEntity
  8
30
  6
Continuous
 62
     0
370
    -2
100
AcDbBlockReference
  2
_OPEN
 10
-104.9999999999994
 20
251.029512709525
 30
0.0
 41
2.0
 42
2.0
 43
2.0
 50
90.0
  0
MTEXT
  5
C6F5
330
9A6B
100
AcDbEntity
  8
30
  6
Continuous
 62
     0
100
AcDbMText
 10
-110.9999999999994
 20
196.0295127095251
 30
0.0
 40
6.0
 41
0.0
 71
     5
 72
     1
  1
\A1; 110 
 11
0.0000000000000001
 21
1.0
 31
0.0
 73
     1
 44
1.0
  0
POINT
  5
C6F6
330
9A6B
100
AcDbEntity
  8
DEFPOINTS
  6
Continuous
 62
     0
100
AcDbPoint
 10
-104.9999999999994
 20
141.0295127095253
 30
0.0
  0
POINT
  5
C6F7
330
9A6B
100
AcDbEntity
  8
DEFPOINTS
  6
Continuous
 62
     0
100
AcDbPoint
 10
-41.99999999999977
 20
251.029512709525
 30
0.0
  0
POINT
  5
C6F8
330
9A6B
100
AcDbEntity
  8
DEFPOINTS
  6
Continuous
 62
     0
100
AcDbPoint
 10
-104.9999999999994
 20
251.029512709525
 30
0.0
  0
ENDBLK
  5
9A77
330
9A6B
100
AcDbEntity
  8
0
100
AcDbBlockEnd
  0
BLOCK
  5
9F2D
330
9F26
100
AcDbEntity
  8
0
100
AcDbBlockBegin
  2
*D31
 70
     1
 10
0.0
 20
0.0
 30
0.0
  3
*D31
  1

  0
LINE
  5
C62F
330
9F26
100
AcDbEntity
  8
30
  6
Continuous
 62
     0
370
    -2
100
AcDbLine
 10
324.4527011231756
 20
-466.3468649357773
 30
0.0
 11
326.8040162042881
 21
-470.0933245377831
 31
0.0
  0
LINE
  5
C630
330
9F26
100
AcDbEntity
  8
30
  6
Continuous
 62
     0
370
    -2
100
AcDbLine
 10
326.8040162042881
 20
-470.0933245377831
 30
0.0
 11
339.8040162042881
 21
-470.0933245377831
 31
0.0
  0
INSERT
  5
C631
330
9F26
100
AcDbEntity
  8
30
  6
Continuous
 62
     0
370
    -2
100
AcDbBlockReference
  2
_OPEN
 10
323.3895258423824
 20
-464.6528583471508
 30
0.0
 41
2.0
 42
2.0
 43
2.0
 50
122.1127881814872
  0
MTEXT
  5
C632
330
9F26
100
AcDbEntity
  8
30
  6
Continuous
 62
     0
100
AcDbMText
 10
334.8040162042881
 20
-464.0933245377829
 30
0.0
 40
6.0
 41
0.0
 71
     5
 72
     1
  1
\A1;R6
 73
     1
 44
1.0
  0
LINE
  5
C633
330
9F26
100
AcDbEntity
  8
30
  6
Continuous
 62
     0
370
    -2
100
AcDbLine
 10
320.1100000000021
 20
-459.5708385812688
 30
0.0
 11
320.2900000000021
 21
-459.5708385812688
 31
0.0
  0
LINE
  5
C634
330
9F26
100
AcDbEntity
  8
30
  6
Continuous
 62
     0
370
    -2
100
AcDbLine
 10
320.2000000000021
 20
-459.6608385812688
 30
0.0
 11
320.2000000000021
 21
-459.4808385812688
 31
0.0
  0
POINT
  5
C635
330
9F26
100
AcDbEntity
  8
DEFPOINTS
  6
Continuous
 62
     0
100
AcDbPoint
 10
323.3895258423824
 20
-464.6528583471508
 30
0.0
  0
POINT
  5
C636
330
9F26
100
AcDbEntity
  8
DEFPOINTS
  6
Continuous
 62
     0
100
AcDbPoint
 10
320.2000000000021
 20
-459.5708385812688
 30
0.0
  0
ENDBLK
  5
9F2E
330
9F26
100
AcDbEntity
  8
0
100
AcDbBlockEnd
  0
BLOCK
  5
A8E5
330
A8DC
100
AcDbEntity
  8
0
100
AcDbBlockBegin
  2
*D32
 70
     1
 10
0.0
 20
0.0
 30
0.0
  3
*D32
  1

  0
LINE
  5
C74C
330
A8DC
100
AcDbEntity
  8
30
  6
Continuous
 62
     0
370
    -2
100
AcDbLine
 10
94.00000000000002
 20
234.0
 30
0.0
 11
77.00000000000001
 21
234.0
 31
0.0
  0
LINE
  5
C74D
330
A8DC
100
AcDbEntity
  8
30
  6
Continuous
 62
     0
370
    -2
100
AcDbLine
 10
77.00000000000001
 20
234.0
 30
0.0
 11
72.05736929850303
 21
214.1867677170193
 31
0.0
  0
MTEXT
  5
C74E
330
A8DC
100
AcDbEntity
  8
30
  6
Continuous
 62
     0
100
AcDbMText
 10
86.99999999999995
 20
240.0
 30
0.0
 40
6.0
 41
0.0
 71
     5
 72
     1
  1
\A1;\U+220513
 73
     1
 44
1.0
  0
INSERT
  5
C74F
330
A8DC
100
AcDbEntity
  8
30
  6
Continuous
 62
     0
370
    -2
100
AcDbBlockReference
  2
_OPEN
 10
71.5732823497596
 20
212.2462369066336
 30
0.0
 41
2.0
 42
2.0
 43
2.0
 50
255.9928206842906
  0
LINE
  5
C750
330
A8DC
100
AcDbEntity
  8
30
  6
Continuous
 62
     0
370
    -2
100
AcDbLine
 10
69.90999999999989
 20
205.9395127095251
 30
0.0
 11
70.08999999999992
 21
205.9395127095251
 31
0.0
  0
LINE
  5
C751
330
A8DC
100
AcDbEntity
  8
30
  6
Continuous
 62
     0
370
    -2
100
AcDbLine
 10
69.99999999999992
 20
205.849512709525
 30
0.0
 11
69.99999999999992
 21
206.0295127095251
 31
0.0
  0
POINT
  5
C752
330
A8DC
100
AcDbEntity
  8
DEFPOINTS
  6
Continuous
 62
     0
100
AcDbPoint
 10
71.5732823497596
 20
212.2462369066336
 30
0.0
  0
POINT
  5
C753
330
A8DC
100
AcDbEntity
  8
DEFPOINTS
  6
Continuous
 62
     0
100
AcDbPoint
 10
68.42671765024021
 20
199.6327885124166
 30
0.0
  0
ENDBLK
  5
A8E6
330
A8DC
100
AcDbEntity
  8
0
100
AcDbBlockEnd
  0
BLOCK
  5
A8F1
330
A8E7
100
AcDbEntity
  8
0
100
AcDbBlockBegin
  2
*D33
 70
     1
 10
0.0
 20
0.0
 30
0.0
  3
*D33
  1

  0
LINE
  5
C61E
330
A8E7
100
AcDbEntity
  8
30
  6
Continuous
 62
     0
370
    -2
100
AcDbLine
 10
63.49999749999985
 20
177.9395102095251
 30
0.0
 11
63.49999749999985
 21
187.5
 31
0.0
  0
LINE
  5
C61F
330
A8E7
100
AcDbEntity
  8
30
  6
Continuous
 62
     0
370
    -2
100
AcDbLine
 10
76.49999750000006
 20
177.9395102095251
 30
0.0
 11
76.49999750000006
 21
187.5
 31
0.0
  0
LINE
  5
C620
330
A8E7
100
AcDbEntity
  8
30
  6
Continuous
 62
     0
370
    -2
100
AcDbLine
 10
65.49999749999985
 20
187.0
 30
0.0
 11
74.49999750000007
 21
187.0
 31
0.0
  0
INSERT
  5
C621
330
A8E7
100
AcDbEntity
  8
30
  6
Continuous
 62
     0
370
    -2
100
AcDbBlockReference
  2
_OPEN
 10
63.49999749999985
 20
187.0
 30
0.0
 41
2.0
 42
2.0
 43
2.0
 50
180.0
  0
INSERT
  5
C622
330
A8E7
100
AcDbEntity
  8
30
  6
Continuous
 62
     0
370
    -2
100
AcDbBlockReference
  2
_OPEN
 10
76.49999750000006
 20
187.0
 30
0.0
 41
2.0
 42
2.0
 43
2.0
  0
MTEXT
  5
C623
330
A8E7
100
AcDbEntity
  8
30
  6
Continuous
 62
     0
100
AcDbMText
 10
69.99999749999995
 20
193.0
 30
0.0
 40
6.0
 41
0.0
 71
     5
 72
     1
  1
\A1; 13 
 73
     1
 44
1.0
  0
POINT
  5
C624
330
A8E7
100
AcDbEntity
  8
DEFPOINTS
  6
Continuous
 62
     0
100
AcDbPoint
 10
63.49999749999985
 20
174.9395102095251
 30
0.0
  0
POINT
  5
C625
330
A8E7
100
AcDbEntity
  8
DEFPOINTS
  6
Continuous
 62
     0
100
AcDbPoint
 10
76.49999750000006
 20
174.9395102095251
 30
0.0
  0
POINT
  5
C626
330
A8E7
100
AcDbEntity
  8
DEFPOINTS
  6
Continuous
 62
     0
100
AcDbPoint
 10
76.49999750000006
 20
187.0
 30
0.0
  0
ENDBLK
  5
A8F2
330
A8E7
100
AcDbEntity
  8
0
100
AcDbBlockEnd
  0
BLOCK
  5
B27E
330
B274
100
AcDbEntity
  8
0
100
AcDbBlockBegin
  2
*D34
 70
     1
 10
0.0
 20
0.0
 30
0.0
  3
*D34
  1

  0
LINE
  5
C615
330
B274
100
AcDbEntity
  8
30
  6
Continuous
 62
     0
370
    -2
100
AcDbLine
 10
-97.99999999999933
 20
-212.0474753083985
 30
0.0
 11
-178.6134758423905
 21
-212.0474753083985
 31
0.0
  0
LINE
  5
C616
330
B274
100
AcDbEntity
  8
30
  6
Continuous
 62
     0
370
    -2
100
AcDbLine
 10
-112.9999999999993
 20
-132.0474753083987
 30
0.0
 11
-178.6134758423905
 21
-132.0474753083987
 31
0.0
  0
LINE
  5
C617
330
B274
100
AcDbEntity
  8
30
  6
Continuous
 62
     0
370
    -2
100
AcDbLine
 10
-178.1134758423905
 20
-210.0474753083985
 30
0.0
 11
-178.1134758423905
 21
-134.0474753083987
 31
0.0
  0
INSERT
  5
C618
330
B274
100
AcDbEntity
  8
30
  6
Continuous
 62
     0
370
    -2
100
AcDbBlockReference
  2
_OPEN
 10
-178.1134758423905
 20
-212.0474753083985
 30
0.0
 41
2.0
 42
2.0
 43
2.0
 50
270.0
  0
INSERT
  5
C619
330
B274
100
AcDbEntity
  8
30
  6
Continuous
 62
     0
370
    -2
100
AcDbBlockReference
  2
_OPEN
 10
-178.1134758423905
 20
-132.0474753083987
 30
0.0
 41
2.0
 42
2.0
 43
2.0
 50
90.0
  0
MTEXT
  5
C61A
330
B274
100
AcDbEntity
  8
30
  6
Continuous
 62
     0
100
AcDbMText
 10
-184.1134758423905
 20
-172.0474753083984
 30
0.0
 40
6.0
 41
0.0
 71
     5
 72
     1
  1
\A1; 80 
 11
0.0000000000000001
 21
1.0
 31
0.0
 73
     1
 44
1.0
  0
POINT
  5
C61B
330
B274
100
AcDbEntity
  8
DEFPOINTS
  6
Continuous
 62
     0
100
AcDbPoint
 10
-94.99999999999932
 20
-212.0474753083985
 30
0.0
  0
POINT
  5
C61C
330
B274
100
AcDbEntity
  8
DEFPOINTS
  6
Continuous
 62
     0
100
AcDbPoint
 10
-109.9999999999992
 20
-132.0474753083987
 30
0.0
  0
POINT
  5
C61D
330
B274
100
AcDbEntity
  8
DEFPOINTS
  6
Continuous
 62
     0
100
AcDbPoint
 10
-178.1134758423905
 20
-132.0474753083987
 30
0.0
  0
ENDBLK
  5
B27F
330
B274
100
AcDbEntity
  8
0
100
AcDbBlockEnd
  0
BLOCK
  5
B28A
330
B280
100
AcDbEntity
  8
0
100
AcDbBlockBegin
  2
*D35
 70
     1
 10
0.0
 20
0.0
 30
0.0
  3
*D35
  1

  0
LINE
  5
C603
330
B280
100
AcDbEntity
  8
30
  6
Continuous
 62
     0
370
    -2
100
AcDbLine
 10
-112.9999999999993
 20
-132.0474753083987
 30
0.0
 11
-178.6134758423905
 21
-132.0474753083987
 31
0.0
  0
LINE
  5
C604
330
B280
100
AcDbEntity
  8
30
  6
Continuous
 62
     0
370
    -2
100
AcDbLine
 10
-112.9999999999993
 20
140.9525246916006
 30
0.0
 11
-178.6134758423905
 21
140.9525246916006
 31
0.0
  0
LINE
  5
C605
330
B280
100
AcDbEntity
  8
30
  6
Continuous
 62
     0
370
    -2
100
AcDbLine
 10
-178.1134758423905
 20
-130.0474753083987
 30
0.0
 11
-178.1134758423905
 21
138.9525246916005
 31
0.0
  0
INSERT
  5
C606
330
B280
100
AcDbEntity
  8
30
  6
Continuous
 62
     0
370
    -2
100
AcDbBlockReference
  2
_OPEN
 10
-178.1134758423905
 20
-132.0474753083987
 30
0.0
 41
2.0
 42
2.0
 43
2.0
 50
270.0
  0
INSERT
  5
C607
330
B280
100
AcDbEntity
  8
30
  6
Continuous
 62
     0
370
    -2
100
AcDbBlockReference
  2
_OPEN
 10
-178.1134758423905
 20
140.9525246916006
 30
0.0
 41
2.0
 42
2.0
 43
2.0
 50
90.0
  0
MTEXT
  5
C608
330
B280
100
AcDbEntity
  8
30
  6
Continuous
 62
     0
100
AcDbMText
 10
-184.1134758423905
 20
4.452524691600967
 30
0.0
 40
6.0
 41
0.0
 71
     5
 72
     1
  1
\A1; 273 
 11
0.0000000000000001
 21
1.0
 31
0.0
 73
     1
 44
1.0
  0
POINT
  5
C609
330
B280
100
AcDbEntity
  8
DEFPOINTS
  6
Continuous
 62
     0
100
AcDbPoint
 10
-109.9999999999992
 20
-132.0474753083987
 30
0.0
  0
POINT
  5
C60A
330
B280
100
AcDbEntity
  8
DEFPOINTS
  6
Continuous
 62
     0
100
AcDbPoint
 10
-109.9999999999992
 20
140.9525246916006
 30
0.0
  0
POINT
  5
C60B
330
B280
100
AcDbEntity
  8
DEFPOINTS
  6
Continuous
 62
     0
100
AcDbPoint
 10
-178.1134758423905
 20
140.9525246916006
 30
0.0
  0
ENDBLK
  5
B28B
330
B280
100
AcDbEntity
  8
0
100
AcDbBlockEnd
  0
BLOCK
  5
B296
330
B28C
100
AcDbEntity
  8
0
100
AcDbBlockBegin
  2
*D36
 70
     1
 10
0.0
 20
0.0
 30
0.0
  3
*D36
  1

  0
LINE
  5
C60C
330
B28C
100
AcDbEntity
  8
30
  6
Continuous
 62
     0
370
    -2
100
AcDbLine
 10
-112.9999999999993
 20
140.9525246916006
 30
0.0
 11
-162.1993509957452
 21
140.9525246916006
 31
0.0
  0
LINE
  5
C60D
330
B28C
100
AcDbEntity
  8
30
  6
Continuous
 62
     0
370
    -2
100
AcDbLine
 10
-122.999999999999
 20
-0.0474753083990605
 30
0.0
 11
-162.1993509957453
 21
-0.0474753083990494
 31
0.0
  0
LINE
  5
C60E
330
B28C
100
AcDbEntity
  8
30
  6
Continuous
 62
     0
370
    -2
100
AcDbLine
 10
-161.699350995745
 20
138.9525246916005
 30
0.0
 11
-161.6993509957453
 21
1.95252469160095
 31
0.0
  0
INSERT
  5
C60F
330
B28C
100
AcDbEntity
  8
30
  6
Continuous
 62
     0
370
    -2
100
AcDbBlockReference
  2
_OPEN
 10
-161.699350995745
 20
140.9525246916006
 30
0.0
 41
2.0
 42
2.0
 43
2.0
 50
90.0
  0
INSERT
  5
C610
330
B28C
100
AcDbEntity
  8
30
  6
Continuous
 62
     0
370
    -2
100
AcDbBlockReference
  2
_OPEN
 10
-161.6993509957453
 20
-0.0474753083990495
 30
0.0
 41
2.0
 42
2.0
 43
2.0
 50
270.0
  0
MTEXT
  5
C611
330
B28C
100
AcDbEntity
  8
30
  6
Continuous
 62
     0
100
AcDbMText
 10
-167.6993509957453
 20
70.4525246916008
 30
0.0
 40
6.0
 41
0.0
 71
     5
 72
     1
  1
\A1; 141 
 11
0.0000000000000001
 21
1.0
 31
0.0
 73
     1
 44
1.0
  0
POINT
  5
C612
330
B28C
100
AcDbEntity
  8
DEFPOINTS
  6
Continuous
 62
     0
100
AcDbPoint
 10
-109.9999999999992
 20
140.9525246916006
 30
0.0
  0
POINT
  5
C613
330
B28C
100
AcDbEntity
  8
DEFPOINTS
  6
Continuous
 62
     0
100
AcDbPoint
 10
-119.999999999999
 20
-0.0474753083990613
 30
0.0
  0
POINT
  5
C614
330
B28C
100
AcDbEntity
  8
DEFPOINTS
  6
Continuous
 62
     0
100
AcDbPoint
 10
-161.6993509957453
 20
-0.0474753083990495
 30
0.0
  0
ENDBLK
  5
B297
330
B28C
100
AcDbEntity
  8
0
100
AcDbBlockEnd
  0
BLOCK
  5
B2A2
330
B298
100
AcDbEntity
  8
0
100
AcDbBlockBegin
  2
*D37
 70
     1
 10
0.0
 20
0.0
 30
0.0
  3
*D37
  1

  0
LINE
  5
C5FA
330
B298
100
AcDbEntity
  8
30
  6
Continuous
 62
     0
370
    -2
100
AcDbLine
 10
-122.999999999999
 20
-0.0474753083990605
 30
0.0
 11
-162.1993509957452
 21
-0.0474753083990494
 31
0.0
  0
LINE
  5
C5FB
330
B298
100
AcDbEntity
  8
30
  6
Continuous
 62
     0
370
    -2
100
AcDbLine
 10
-112.9999999999993
 20
-132.0474753083987
 30
0.0
 11
-162.1993509957453
 21
-132.0474753083987
 31
0.0
  0
LINE
  5
C5FC
330
B298
100
AcDbEntity
  8
30
  6
Continuous
 62
     0
370
    -2
100
AcDbLine
 10
-161.699350995745
 20
-2.047475308399048
 30
0.0
 11
-161.6993509957453
 21
-130.0474753083987
 31
0.0
  0
INSERT
  5
C5FD
330
B298
100
AcDbEntity
  8
30
  6
Continuous
 62
     0
370
    -2
100
AcDbBlockReference
  2
_OPEN
 10
-161.699350995745
 20
-0.0474753083990495
 30
0.0
 41
2.0
 42
2.0
 43
2.0
 50
90.0
  0
INSERT
  5
C5FE
330
B298
100
AcDbEntity
  8
30
  6
Continuous
 62
     0
370
    -2
100
AcDbBlockReference
  2
_OPEN
 10
-161.6993509957453
 20
-132.0474753083987
 30
0.0
 41
2.0
 42
2.0
 43
2.0
 50
270.0
  0
MTEXT
  5
C5FF
330
B298
100
AcDbEntity
  8
30
  6
Continuous
 62
     0
100
AcDbMText
 10
-167.699350995745
 20
-66.0474753083989
 30
0.0
 40
6.0
 41
0.0
 71
     5
 72
     1
  1
\A1; 132 
 11
0.0000000000000001
 21
1.0
 31
0.0
 73
     1
 44
1.0
  0
POINT
  5
C600
330
B298
100
AcDbEntity
  8
DEFPOINTS
  6
Continuous
 62
     0
100
AcDbPoint
 10
-119.999999999999
 20
-0.0474753083990613
 30
0.0
  0
POINT
  5
C601
330
B298
100
AcDbEntity
  8
DEFPOINTS
  6
Continuous
 62
     0
100
AcDbPoint
 10
-109.9999999999992
 20
-132.0474753083987
 30
0.0
  0
POINT
  5
C602
330
B298
100
AcDbEntity
  8
DEFPOINTS
  6
Continuous
 62
     0
100
AcDbPoint
 10
-161.6993509957453
 20
-132.0474753083987
 30
0.0
  0
ENDBLK
  5
B2A3
330
B298
100
AcDbEntity
  8
0
100
AcDbBlockEnd
  0
BLOCK
  5
B2AE
330
B2A4
100
AcDbEntity
  8
0
100
AcDbBlockBegin
  2
*D38
 70
     1
 10
0.0
 20
0.0
 30
0.0
  3
*D38
  1

  0
LINE
  5
C5F1
330
B2A4
100
AcDbEntity
  8
30
  6
Continuous
 62
     0
370
    -2
100
AcDbLine
 10
-112.9999999999993
 20
140.9525246916006
 30
0.0
 11
-178.6134758423905
 21
140.9525246916006
 31
0.0
  0
LINE
  5
C5F2
330
B2A4
100
AcDbEntity
  8
30
  6
Continuous
 62
     0
370
    -2
100
AcDbLine
 10
-97.99999999999933
 20
220.9525246916004
 30
0.0
 11
-178.6134758423905
 21
220.9525246916004
 31
0.0
  0
LINE
  5
C5F3
330
B2A4
100
AcDbEntity
  8
30
  6
Continuous
 62
     0
370
    -2
100
AcDbLine
 10
-178.1134758423905
 20
142.9525246916005
 30
0.0
 11
-178.1134758423905
 21
218.9525246916004
 31
0.0
  0
INSERT
  5
C5F4
330
B2A4
100
AcDbEntity
  8
30
  6
Continuous
 62
     0
370
    -2
100
AcDbBlockReference
  2
_OPEN
 10
-178.1134758423905
 20
140.9525246916006
 30
0.0
 41
2.0
 42
2.0
 43
2.0
 50
270.0
  0
INSERT
  5
C5F5
330
B2A4
100
AcDbEntity
  8
30
  6
Continuous
 62
     0
370
    -2
100
AcDbBlockReference
  2
_OPEN
 10
-178.1134758423905
 20
220.9525246916004
 30
0.0
 41
2.0
 42
2.0
 43
2.0
 50
90.0
  0
MTEXT
  5
C5F6
330
B2A4
100
AcDbEntity
  8
30
  6
Continuous
 62
     0
100
AcDbMText
 10
-184.1134758423905
 20
180.9525246916004
 30
0.0
 40
6.0
 41
0.0
 71
     5
 72
     1
  1
\A1; 80 
 11
0.0000000000000001
 21
1.0
 31
0.0
 73
     1
 44
1.0
  0
POINT
  5
C5F7
330
B2A4
100
AcDbEntity
  8
DEFPOINTS
  6
Continuous
 62
     0
100
AcDbPoint
 10
-109.9999999999992
 20
140.9525246916006
 30
0.0
  0
POINT
  5
C5F8
330
B2A4
100
AcDbEntity
  8
DEFPOINTS
  6
Continuous
 62
     0
100
AcDbPoint
 10
-94.99999999999932
 20
220.9525246916004
 30
0.0
  0
POINT
  5
C5F9
330
B2A4
100
AcDbEntity
  8
DEFPOINTS
  6
Continuous
 62
     0
100
AcDbPoint
 10
-178.1134758423905
 20
220.9525246916004
 30
0.0
  0
ENDBLK
  5
B2AF
330
B2A4
100
AcDbEntity
  8
0
100
AcDbBlockEnd
  0
BLOCK
  5
B681
330
B677
100
AcDbEntity
  8
0
100
AcDbBlockBegin
  2
*D39
 70
     1
 10
0.0
 20
0.0
 30
0.0
  3
*D39
  1

  0
LINE
  5
C5DF
330
B677
100
AcDbEntity
  8
30
  6
Continuous
 62
     0
370
    -2
100
AcDbLine
 10
-69.99999999999954
 20
377.3526745713752
 30
0.0
 11
-69.99999999999954
 21
429.0085085369581
 31
0.0
  0
LINE
  5
C5E0
330
B677
100
AcDbEntity
  8
30
  6
Continuous
 62
     0
370
    -2
100
AcDbLine
 10
0.0000000000002276
 20
377.3526745713752
 30
0.0
 11
0.0000000000002307
 21
429.0085085369581
 31
0.0
  0
LINE
  5
C5E1
330
B677
100
AcDbEntity
  8
30
  6
Continuous
 62
     0
370
    -2
100
AcDbLine
 10
-67.99999999999954
 20
428.5085085369582
 30
0.0
 11
-1.999999999999769
 21
428.5085085369582
 31
0.0
  0
INSERT
  5
C5E2
330
B677
100
AcDbEntity
  8
30
  6
Continuous
 62
     0
370
    -2
100
AcDbBlockReference
  2
_OPEN
 10
-69.99999999999954
 20
428.5085085369582
 30
0.0
 41
2.0
 42
2.0
 43
2.0
 50
180.0
  0
INSERT
  5
C5E3
330
B677
100
AcDbEntity
  8
30
  6
Continuous
 62
     0
370
    -2
100
AcDbBlockReference
  2
_OPEN
 10
0.0000000000002307
 20
428.5085085369582
 30
0.0
 41
2.0
 42
2.0
 43
2.0
  0
MTEXT
  5
C5E4
330
B677
100
AcDbEntity
  8
30
  6
Continuous
 62
     0
100
AcDbMText
 10
-34.99999999999966
 20
434.5085085369581
 30
0.0
 40
6.0
 41
0.0
 71
     5
 72
     1
  1
\A1;70
 73
     1
 44
1.0
  0
POINT
  5
C5E5
330
B677
100
AcDbEntity
  8
DEFPOINTS
  6
Continuous
 62
     0
100
AcDbPoint
 10
-69.99999999999954
 20
374.3526745713753
 30
0.0
  0
POINT
  5
C5E6
330
B677
100
AcDbEntity
  8
DEFPOINTS
  6
Continuous
 62
     0
100
AcDbPoint
 10
0.0000000000002274
 20
374.3526745713753
 30
0.0
  0
POINT
  5
C5E7
330
B677
100
AcDbEntity
  8
DEFPOINTS
  6
Continuous
 62
     0
100
AcDbPoint
 10
0.0000000000002307
 20
428.5085085369582
 30
0.0
  0
ENDBLK
  5
B682
330
B677
100
AcDbEntity
  8
0
100
AcDbBlockEnd
  0
BLOCK
  5
B68D
330
B683
100
AcDbEntity
  8
0
100
AcDbBlockBegin
  2
*D40
 70
     1
 10
0.0
 20
0.0
 30
0.0
  3
*D40
  1

  0
LINE
  5
C5D6
330
B683
100
AcDbEntity
  8
30
  6
Continuous
 62
     0
370
    -2
100
AcDbLine
 10
-105.0
 20
411.3526745713753
 30
0.0
 11
-105.0
 21
429.0085085369581
 31
0.0
  0
LINE
  5
C5D7
330
B683
100
AcDbEntity
  8
30
  6
Continuous
 62
     0
370
    -2
100
AcDbLine
 10
-69.99999999999954
 20
377.3526745713752
 30
0.0
 11
-69.99999999999954
 21
429.0085085369581
 31
0.0
  0
LINE
  5
C5D8
330
B683
100
AcDbEntity
  8
30
  6
Continuous
 62
     0
370
    -2
100
AcDbLine
 10
-103.0
 20
428.5085085369582
 30
0.0
 11
-71.99999999999954
 21
428.5085085369582
 31
0.0
  0
INSERT
  5
C5D9
330
B683
100
AcDbEntity
  8
30
  6
Continuous
 62
     0
370
    -2
100
AcDbBlockReference
  2
_OPEN
 10
-105.0
 20
428.5085085369582
 30
0.0
 41
2.0
 42
2.0
 43
2.0
 50
180.0
  0
INSERT
  5
C5DA
330
B683
100
AcDbEntity
  8
30
  6
Continuous
 62
     0
370
    -2
100
AcDbBlockReference
  2
_OPEN
 10
-69.99999999999954
 20
428.5085085369582
 30
0.0
 41
2.0
 42
2.0
 43
2.0
  0
MTEXT
  5
C5DB
330
B683
100
AcDbEntity
  8
30
  6
Continuous
 62
     0
100
AcDbMText
 10
-87.49999999999976
 20
434.5085085369581
 30
0.0
 40
6.0
 41
0.0
 71
     5
 72
     1
  1
\A1;35
 73
     1
 44
1.0
  0
POINT
  5
C5DC
330
B683
100
AcDbEntity
  8
DEFPOINTS
  6
Continuous
 62
     0
100
AcDbPoint
 10
-105.0
 20
408.3526745713752
 30
0.0
  0
POINT
  5
C5DD
330
B683
100
AcDbEntity
  8
DEFPOINTS
  6
Continuous
 62
     0
100
AcDbPoint
 10
-69.99999999999954
 20
374.3526745713753
 30
0.0
  0
POINT
  5
C5DE
330
B683
100
AcDbEntity
  8
DEFPOINTS
  6
Continuous
 62
     0
100
AcDbPoint
 10
-69.99999999999954
 20
428.5085085369582
 30
0.0
  0
ENDBLK
  5
B68E
330
B683
100
AcDbEntity
  8
0
100
AcDbBlockEnd
  0
BLOCK
  5
B699
330
B68F
100
AcDbEntity
  8
0
100
AcDbBlockBegin
  2
*D41
 70
     1
 10
0.0
 20
0.0
 30
0.0
  3
*D41
  1

  0
LINE
  5
C5CD
330
B68F
100
AcDbEntity
  8
30
  6
Continuous
 62
     0
370
    -2
100
AcDbLine
 10
0.0000000000002276
 20
377.3526745713752
 30
0.0
 11
0.0000000000002307
 21
429.0085085369581
 31
0.0
  0
LINE
  5
C5CE
330
B68F
100
AcDbEntity
  8
30
  6
Continuous
 62
     0
370
    -2
100
AcDbLine
 10
70.0
 20
377.3526745713752
 30
0.0
 11
70.0
 21
429.0085085369581
 31
0.0
  0
LINE
  5
C5CF
330
B68F
100
AcDbEntity
  8
30
  6
Continuous
 62
     0
370
    -2
100
AcDbLine
 10
2.00000000000023
 20
428.5085085369582
 30
0.0
 11
68.0
 21
428.5085085369582
 31
0.0
  0
INSERT
  5
C5D0
330
B68F
100
AcDbEntity
  8
30
  6
Continuous
 62
     0
370
    -2
100
AcDbBlockReference
  2
_OPEN
 10
0.0000000000002307
 20
428.5085085369582
 30
0.0
 41
2.0
 42
2.0
 43
2.0
 50
180.0
  0
INSERT
  5
C5D1
330
B68F
100
AcDbEntity
  8
30
  6
Continuous
 62
     0
370
    -2
100
AcDbBlockReference
  2
_OPEN
 10
70.0
 20
428.5085085369582
 30
0.0
 41
2.0
 42
2.0
 43
2.0
  0
MTEXT
  5
C5D2
330
B68F
100
AcDbEntity
  8
30
  6
Continuous
 62
     0
100
AcDbMText
 10
35.0000000000001
 20
434.5085085369581
 30
0.0
 40
6.0
 41
0.0
 71
     5
 72
     1
  1
\A1;70
 73
     1
 44
1.0
  0
POINT
  5
C5D3
330
B68F
100
AcDbEntity
  8
DEFPOINTS
  6
Continuous
 62
     0
100
AcDbPoint
 10
0.0000000000002274
 20
374.3526745713753
 30
0.0
  0
POINT
  5
C5D4
330
B68F
100
AcDbEntity
  8
DEFPOINTS
  6
Continuous
 62
     0
100
AcDbPoint
 10
70.0
 20
374.3526745713753
 30
0.0
  0
POINT
  5
C5D5
330
B68F
100
AcDbEntity
  8
DEFPOINTS
  6
Continuous
 62
     0
100
AcDbPoint
 10
70.0
 20
428.5085085369582
 30
0.0
  0
ENDBLK
  5
B69A
330
B68F
100
AcDbEntity
  8
0
100
AcDbBlockEnd
  0
BLOCK
  5
B6B1
330
B6A7
100
AcDbEntity
  8
0
100
AcDbBlockBegin
  2
*D42
 70
     1
 10
0.0
 20
0.0
 30
0.0
  3
*D42
  1

  0
LINE
  5
C5C4
330
B6A7
100
AcDbEntity
  8
30
  6
Continuous
 62
     0
370
    -2
100
AcDbLine
 10
70.0
 20
377.3526745713752
 30
0.0
 11
70.0
 21
429.0085085369581
 31
0.0
  0
LINE
  5
C5C5
330
B6A7
100
AcDbEntity
  8
30
  6
Continuous
 62
     0
370
    -2
100
AcDbLine
 10
174.9935351126155
 20
411.3526745713751
 30
0.0
 11
174.9935351126155
 21
429.0085085369581
 31
0.0
  0
LINE
  5
C5C6
330
B6A7
100
AcDbEntity
  8
30
  6
Continuous
 62
     0
370
    -2
100
AcDbLine
 10
72.0
 20
428.5085085369582
 30
0.0
 11
172.9935351126155
 21
428.5085085369582
 31
0.0
  0
INSERT
  5
C5C7
330
B6A7
100
AcDbEntity
  8
30
  6
Continuous
 62
     0
370
    -2
100
AcDbBlockReference
  2
_OPEN
 10
70.0
 20
428.5085085369582
 30
0.0
 41
2.0
 42
2.0
 43
2.0
 50
180.0
  0
INSERT
  5
C5C8
330
B6A7
100
AcDbEntity
  8
30
  6
Continuous
 62
     0
370
    -2
100
AcDbBlockReference
  2
_OPEN
 10
174.9935351126155
 20
428.5085085369582
 30
0.0
 41
2.0
 42
2.0
 43
2.0
  0
MTEXT
  5
C5C9
330
B6A7
100
AcDbEntity
  8
30
  6
Continuous
 62
     0
100
AcDbMText
 10
122.4967675563076
 20
434.5085085369581
 30
0.0
 40
6.0
 41
0.0
 71
     5
 72
     1
  1
\A1;105
 73
     1
 44
1.0
  0
POINT
  5
C5CA
330
B6A7
100
AcDbEntity
  8
DEFPOINTS
  6
Continuous
 62
     0
100
AcDbPoint
 10
70.0
 20
374.3526745713753
 30
0.0
  0
POINT
  5
C5CB
330
B6A7
100
AcDbEntity
  8
DEFPOINTS
  6
Continuous
 62
     0
100
AcDbPoint
 10
174.9935351126155
 20
408.3526745713751
 30
0.0
  0
POINT
  5
C5CC
330
B6A7
100
AcDbEntity
  8
DEFPOINTS
  6
Continuous
 62
     0
100
AcDbPoint
 10
174.9935351126155
 20
428.5085085369582
 30
0.0
  0
ENDBLK
  5
B6B2
330
B6A7
100
AcDbEntity
  8
0
100
AcDbBlockEnd
  0
BLOCK
  5
B6BD
330
B6B3
100
AcDbEntity
  8
0
100
AcDbBlockBegin
  2
*D43
 70
     1
 10
0.0
 20
0.0
 30
0.0
  3
*D43
  1

  0
LINE
  5
C901
330
B6B3
100
AcDbEntity
  8
30
  6
Continuous
 62
     0
370
    -2
100
AcDbLine
 10
180.7872924674434
 20
408.3526745713751
 30
0.0
 11
197.4636107915585
 21
408.3526745713751
 31
0.0
  0
LINE
  5
C902
330
B6B3
100
AcDbEntity
  8
30
  6
Continuous
 62
     0
370
    -2
100
AcDbLine
 10
165.7872924674435
 20
374.3526745713753
 30
0.0
 11
197.4636107915585
 21
374.3526745713753
 31
0.0
  0
LINE
  5
C903
330
B6B3
100
AcDbEntity
  8
30
  6
Continuous
 62
     0
370
    -2
100
AcDbLine
 10
196.9636107915585
 20
406.3526745713751
 30
0.0
 11
196.9636107915585
 21
376.3526745713753
 31
0.0
  0
MTEXT
  5
C904
330
B6B3
100
AcDbEntity
  8
30
  6
Continuous
 62
     0
100
AcDbMText
 10
260.7232814996204
 20
387.9328973837908
 30
0.0
 40
6.0
 41
0.0
 71
     5
 72
     1
  1
\A1;ON SIDE 32\POFF SIDE 34
 73
     1
 44
1.0
  0
INSERT
  5
C905
330
B6B3
100
AcDbEntity
  8
30
  6
Continuous
 62
     0
370
    -2
100
AcDbBlockReference
  2
_OPEN
 10
196.9636107915585
 20
408.3526745713751
 30
0.0
 41
2.0
 42
2.0
 43
2.0
 50
90.0
  0
INSERT
  5
C906
330
B6B3
100
AcDbEntity
  8
30
  6
Continuous
 62
     0
370
    -2
100
AcDbBlockReference
  2
_OPEN
 10
196.9636107915585
 20
374.3526745713753
 30
0.0
 41
2.0
 42
2.0
 43
2.0
 50
270.0
  0
POINT
  5
C907
330
B6B3
100
AcDbEntity
  8
DEFPOINTS
  6
Continuous
 62
     0
100
AcDbPoint
 10
177.7872924674434
 20
408.3526745713751
 30
0.0
  0
POINT
  5
C908
330
B6B3
100
AcDbEntity
  8
DEFPOINTS
  6
Continuous
 62
     0
100
AcDbPoint
 10
162.7872924674434
 20
374.3526745713753
 30
0.0
  0
POINT
  5
C909
330
B6B3
100
AcDbEntity
  8
DEFPOINTS
  6
Continuous
 62
     0
100
AcDbPoint
 10
196.9636107915585
 20
374.3526745713753
 30
0.0
  0
ENDBLK
  5
B6BE
330
B6B3
100
AcDbEntity
  8
0
100
AcDbBlockEnd
  0
BLOCK
  5
B7A2
330
B798
100
AcDbEntity
  8
0
100
AcDbBlockBegin
  2
*D44
 70
     1
 10
0.0
 20
0.0
 30
0.0
  3
*D44
  1

  0
LINE
  5
C82E
330
B798
100
AcDbEntity
  8
30
  6
Continuous
 62
     0
370
    -2
100
AcDbLine
 10
162.9935351126155
 20
374.3526745713753
 30
0.0
 11
197.4636107915585
 21
374.3526745713753
 31
0.0
  0
LINE
  5
C82F
330
B798
100
AcDbEntity
  8
30
  6
Continuous
 62
     0
370
    -2
100
AcDbLine
 10
162.9935351126155
 20
366.3526745713753
 30
0.0
 11
197.4636107915585
 21
366.3526745713753
 31
0.0
  0
LINE
  5
C830
330
B798
100
AcDbEntity
  8
30
  6
Continuous
 62
     0
370
    -2
100
AcDbLine
 10
196.9636107915585
 20
376.3526745713753
 30
0.0
 11
196.9636107915585
 21
378.3526745713753
 31
0.0
  0
LINE
  5
C831
330
B798
100
AcDbEntity
  8
30
  6
Continuous
 62
     0
370
    -2
100
AcDbLine
 10
196.9636107915585
 20
364.3526745713753
 30
0.0
 11
196.9636107915585
 21
362.3526745713752
 31
0.0
  0
MTEXT
  5
C832
330
B798
100
AcDbEntity
  8
30
  6
Continuous
 62
     0
100
AcDbMText
 10
189.6016897978478
 20
369.9793944294363
 30
0.0
 40
6.0
 41
0.0
 71
     5
 72
     1
  1
\A1;8
 11
0.0000000000000001
 21
1.0
 31
0.0
 73
     1
 44
1.0
  0
LINE
  5
C833
330
B798
100
AcDbEntity
  8
30
  6
Continuous
 62
     0
370
    -2
100
AcDbLine
 10
196.9636107915585
 20
374.3526745713753
 30
0.0
 11
196.9636107915585
 21
366.3526745713753
 31
0.0
  0
INSERT
  5
C834
330
B798
100
AcDbEntity
  8
30
  6
Continuous
 62
     0
370
    -2
100
AcDbBlockReference
  2
_OPEN
 10
196.9636107915585
 20
374.3526745713753
 30
0.0
 41
2.0
 42
2.0
 43
2.0
 50
270.0
  0
INSERT
  5
C835
330
B798
100
AcDbEntity
  8
30
  6
Continuous
 62
     0
370
    -2
100
AcDbBlockReference
  2
_OPEN
 10
196.9636107915585
 20
366.3526745713753
 30
0.0
 41
2.0
 42
2.0
 43
2.0
 50
90.0
  0
POINT
  5
C836
330
B798
100
AcDbEntity
  8
DEFPOINTS
  6
Continuous
 62
     0
100
AcDbPoint
 10
159.9935351126155
 20
374.3526745713753
 30
0.0
  0
POINT
  5
C837
330
B798
100
AcDbEntity
  8
DEFPOINTS
  6
Continuous
 62
     0
100
AcDbPoint
 10
159.9935351126155
 20
366.3526745713753
 30
0.0
  0
POINT
  5
C838
330
B798
100
AcDbEntity
  8
DEFPOINTS
  6
Continuous
 62
     0
100
AcDbPoint
 10
196.9636107915585
 20
366.3526745713753
 30
0.0
  0
ENDBLK
  5
B7A3
330
B798
100
AcDbEntity
  8
0
100
AcDbBlockEnd
  0
BLOCK
  5
BA01
330
B9F7
100
AcDbEntity
  8
0
100
AcDbBlockBegin
  2
*D45
 70
     1
 10
0.0
 20
0.0
 30
0.0
  3
*D45
  1

  0
LINE
  5
C5A7
330
B9F7
100
AcDbEntity
  8
30
  6
Continuous
 62
     0
370
    -2
100
AcDbLine
 10
-115.3288805278388
 20
-499.5708385812683
 30
0.0
 11
-126.9827805278387
 21
-499.5708385812683
 31
0.0
  0
LINE
  5
C5A8
330
B9F7
100
AcDbEntity
  8
30
  6
Continuous
 62
     0
370
    -2
100
AcDbLine
 10
-44.20000000000028
 20
-373.5708385812686
 30
0.0
 11
-126.9827805278387
 21
-373.5708385812686
 31
0.0
  0
LINE
  5
C5A9
330
B9F7
100
AcDbEntity
  8
30
  6
Continuous
 62
     0
370
    -2
100
AcDbLine
 10
-126.4827805278387
 20
-497.5708385812684
 30
0.0
 11
-126.4827805278387
 21
-375.5708385812686
 31
0.0
  0
INSERT
  5
C5AA
330
B9F7
100
AcDbEntity
  8
30
  6
Continuous
 62
     0
370
    -2
100
AcDbBlockReference
  2
_OPEN
 10
-126.4827805278387
 20
-499.5708385812683
 30
0.0
 41
2.0
 42
2.0
 43
2.0
 50
270.0
  0
INSERT
  5
C5AB
330
B9F7
100
AcDbEntity
  8
30
  6
Continuous
 62
     0
370
    -2
100
AcDbBlockReference
  2
_OPEN
 10
-126.4827805278387
 20
-373.5708385812686
 30
0.0
 41
2.0
 42
2.0
 43
2.0
 50
90.0
  0
MTEXT
  5
C5AC
330
B9F7
100
AcDbEntity
  8
30
  6
Continuous
 62
     0
100
AcDbMText
 10
-132.4827805278384
 20
-436.5708385812683
 30
0.0
 40
6.0
 41
0.0
 71
     5
 72
     1
  1
\A1; 126 
 11
0.0000000000000001
 21
1.0
 31
0.0
 73
     1
 44
1.0
  0
POINT
  5
C5AD
330
B9F7
100
AcDbEntity
  8
DEFPOINTS
  6
Continuous
 62
     0
100
AcDbPoint
 10
-112.3288805278388
 20
-499.5708385812683
 30
0.0
  0
POINT
  5
C5AE
330
B9F7
100
AcDbEntity
  8
DEFPOINTS
  6
Continuous
 62
     0
100
AcDbPoint
 10
-41.20000000000027
 20
-373.5708385812686
 30
0.0
  0
POINT
  5
C5AF
330
B9F7
100
AcDbEntity
  8
DEFPOINTS
  6
Continuous
 62
     0
100
AcDbPoint
 10
-126.4827805278387
 20
-373.5708385812686
 30
0.0
  0
ENDBLK
  5
BA02
330
B9F7
100
AcDbEntity
  8
0
100
AcDbBlockEnd
  0
BLOCK
  5
BA0D
330
BA03
100
AcDbEntity
  8
0
100
AcDbBlockBegin
  2
*D46
 70
     1
 10
0.0
 20
0.0
 30
0.0
  3
*D46
  1

  0
LINE
  5
C5B0
330
BA03
100
AcDbEntity
  8
30
  6
Continuous
 62
     0
370
    -2
100
AcDbLine
 10
-44.20000000000028
 20
-616.5708385812681
 30
0.0
 11
-126.9827805278387
 21
-616.5708385812681
 31
0.0
  0
LINE
  5
C5B1
330
BA03
100
AcDbEntity
  8
30
  6
Continuous
 62
     0
370
    -2
100
AcDbLine
 10
-117.7999999999997
 20
-499.5708385812683
 30
0.0
 11
-126.9827805278387
 21
-499.5708385812683
 31
0.0
  0
LINE
  5
C5B2
330
BA03
100
AcDbEntity
  8
30
  6
Continuous
 62
     0
370
    -2
100
AcDbLine
 10
-126.4827805278387
 20
-614.5708385812683
 30
0.0
 11
-126.4827805278387
 21
-501.5708385812684
 31
0.0
  0
INSERT
  5
C5B3
330
BA03
100
AcDbEntity
  8
30
  6
Continuous
 62
     0
370
    -2
100
AcDbBlockReference
  2
_OPEN
 10
-126.4827805278387
 20
-616.5708385812681
 30
0.0
 41
2.0
 42
2.0
 43
2.0
 50
270.0
  0
INSERT
  5
C5B4
330
BA03
100
AcDbEntity
  8
30
  6
Continuous
 62
     0
370
    -2
100
AcDbBlockReference
  2
_OPEN
 10
-126.4827805278387
 20
-499.5708385812683
 30
0.0
 41
2.0
 42
2.0
 43
2.0
 50
90.0
  0
MTEXT
  5
C5B5
330
BA03
100
AcDbEntity
  8
30
  6
Continuous
 62
     0
100
AcDbMText
 10
-132.4827805278384
 20
-558.0708385812681
 30
0.0
 40
6.0
 41
0.0
 71
     5
 72
     1
  1
\A1; 117 
 11
0.0000000000000001
 21
1.0
 31
0.0
 73
     1
 44
1.0
  0
POINT
  5
C5B6
330
BA03
100
AcDbEntity
  8
DEFPOINTS
  6
Continuous
 62
     0
100
AcDbPoint
 10
-41.20000000000027
 20
-616.5708385812681
 30
0.0
  0
POINT
  5
C5B7
330
BA03
100
AcDbEntity
  8
DEFPOINTS
  6
Continuous
 62
     0
100
AcDbPoint
 10
-114.7999999999997
 20
-499.5708385812683
 30
0.0
  0
POINT
  5
C5B8
330
BA03
100
AcDbEntity
  8
DEFPOINTS
  6
Continuous
 62
     0
100
AcDbPoint
 10
-126.4827805278387
 20
-499.5708385812683
 30
0.0
  0
ENDBLK
  5
BA0E
330
BA03
100
AcDbEntity
  8
0
100
AcDbBlockEnd
  0
BLOCK
  5
C8E7
330
C8DD
100
AcDbEntity
  8
0
100
AcDbBlockBegin
  2
*D48
 70
     1
 10
0.0
 20
0.0
 30
0.0
  3
*D48
  1

  0
LINE
  5
C8F2
330
C8DD
100
AcDbEntity
  8
30
  6
Continuous
 62
     0
370
    -2
100
AcDbLine
 10
314.1999999999999
 20
-547.5708385812683
 30
0.0
 11
314.1999999999999
 21
-672.1667135812678
 31
0.0
  0
LINE
  5
C8F3
330
C8DD
100
AcDbEntity
  8
30
  6
Continuous
 62
     0
370
    -2
100
AcDbLine
 10
486.1999999999999
 20
-547.5708385812683
 30
0.0
 11
486.1999999999999
 21
-672.1667135812678
 31
0.0
  0
LINE
  5
C8F4
330
C8DD
100
AcDbEntity
  8
30
  6
Continuous
 62
     0
370
    -2
100
AcDbLine
 10
316.1999999999999
 20
-671.6667135812677
 30
0.0
 11
484.1999999999996
 21
-671.6667135812677
 31
0.0
  0
INSERT
  5
C8F5
330
C8DD
100
AcDbEntity
  8
30
  6
Continuous
 62
     0
370
    -2
100
AcDbBlockReference
  2
_OPEN
 10
314.1999999999999
 20
-671.6667135812677
 30
0.0
 41
2.0
 42
2.0
 43
2.0
 50
180.0
  0
INSERT
  5
C8F6
330
C8DD
100
AcDbEntity
  8
30
  6
Continuous
 62
     0
370
    -2
100
AcDbBlockReference
  2
_OPEN
 10
486.1999999999999
 20
-671.6667135812677
 30
0.0
 41
2.0
 42
2.0
 43
2.0
  0
MTEXT
  5
C8F7
330
C8DD
100
AcDbEntity
  8
30
  6
Continuous
 62
     0
100
AcDbMText
 10
400.1999999999998
 20
-665.6667135812678
 30
0.0
 40
6.0
 41
0.0
 71
     5
 72
     1
  1
\A1; 172 
 73
     1
 44
1.0
  0
POINT
  5
C8F8
330
C8DD
100
AcDbEntity
  8
DEFPOINTS
  6
Continuous
 62
     0
100
AcDbPoint
 10
314.1999999999999
 20
-544.5708385812682
 30
0.0
  0
POINT
  5
C8F9
330
C8DD
100
AcDbEntity
  8
DEFPOINTS
  6
Continuous
 62
     0
100
AcDbPoint
 10
486.1999999999999
 20
-544.5708385812682
 30
0.0
  0
POINT
  5
C8FA
330
C8DD
100
AcDbEntity
  8
DEFPOINTS
  6
Continuous
 62
     0
100
AcDbPoint
 10
486.1999999999999
 20
-671.6667135812677
 30
0.0
  0
ENDBLK
  5
C8E8
330
C8DD
100
AcDbEntity
  8
0
100
AcDbBlockEnd
  0
BLOCK
  5
C9A0
330
C992
100
AcDbEntity
  8
0
100
AcDbBlockBegin
  2
A$C275B7FF9
 70
     0
 10
0.0
 20
0.0
 30
0.0
  3
A$C275B7FF9
  1

  0
LWPOLYLINE
  5
C993
330
C992
100
AcDbEntity
  8
10
  6
CONTINOUS
100
AcDbPolyline
 90
        4
 70
     1
 43
0.0
 10
174.9999999999995
 20
-102.9999999999999
 10
-105.0
 20
-103.0
 10
-105.0
 20
0.0
 10
174.9999999999995
 20
0.0
  0
LINE
  5
C994
330
C992
100
AcDbEntity
  8
10
  6
CONTINOUS
100
AcDbLine
 10
-85.00000000000012
 20
-107.0
 30
0.0
 11
85.0
 21
-107.0
 31
0.0
  0
LINE
  5
C995
330
C992
100
AcDbEntity
  8
10
  6
CONTINOUS
100
AcDbLine
 10
-85.00000000000012
 20
-107.0
 30
0.0
 11
-85.00000000000012
 21
-103.0
 31
0.0
  0
LINE
  5
C996
330
C992
100
AcDbEntity
  8
10
  6
CONTINOUS
100
AcDbLine
 10
20.59999999999991
 20
-143.0
 30
0.0
 11
20.59999999999991
 21
-111.0000000000001
 31
0.0
  0
LINE
  5
C997
330
C992
100
AcDbEntity
  8
10
  6
CONTINOUS
100
AcDbLine
 10
-21.00000000000022
 20
-143.0
 30
0.0
 11
-21.00000000000022
 21
-111.0000000000001
 31
0.0
  0
LINE
  5
C998
330
C992
100
AcDbEntity
  8
10
  6
CONTINOUS
100
AcDbLine
 10
-21.00000000000022
 20
-143.0
 30
0.0
 11
20.59999999999991
 21
-143.0
 31
0.0
  0
LINE
  5
C999
330
C992
100
AcDbEntity
  8
10
  6
CONTINOUS
100
AcDbLine
 10
-25.5
 20
-111.0000000000001
 30
0.0
 11
25.49999999999977
 21
-111.0000000000001
 31
0.0
  0
LINE
  5
C99A
330
C992
100
AcDbEntity
  8
10
  6
CONTINOUS
100
AcDbLine
 10
-14.0
 20
-125.0
 30
0.0
 11
13.99999999999977
 21
-125.0
 31
0.0
  0
LINE
  5
C99B
330
C992
100
AcDbEntity
  8
10
  6
CONTINOUS
100
AcDbLine
 10
-25.5
 20
-111.0000000000001
 30
0.0
 11
-25.5
 21
-107.0
 31
0.0
  0
LINE
  5
C99C
330
C992
100
AcDbEntity
  8
10
  6
CONTINOUS
100
AcDbLine
 10
-14.0
 20
-125.0
 30
0.0
 11
-14.0
 21
-111.0000000000001
 31
0.0
  0
LINE
  5
C99D
330
C992
100
AcDbEntity
  8
10
  6
CONTINOUS
100
AcDbLine
 10
13.99999999999977
 20
-125.0
 30
0.0
 11
13.99999999999977
 21
-111.0000000000001
 31
0.0
  0
LINE
  5
C99E
330
C992
100
AcDbEntity
  8
10
  6
CONTINOUS
100
AcDbLine
 10
25.49999999999977
 20
-111.0000000000001
 30
0.0
 11
25.49999999999977
 21
-107.0
 31
0.0
  0
LINE
  5
C99F
330
C992
100
AcDbEntity
  8
10
  6
CONTINOUS
100
AcDbLine
 10
85.0
 20
-107.0
 30
0.0
 11
85.0
 21
-103.0
 31
0.0
  0
ENDBLK
  5
C9A1
330
C992
100
AcDbEntity
  8
0
100
AcDbBlockEnd
  0
BLOCK
  5
C9B3
330
C9A9
100
AcDbEntity
  8
0
100
AcDbBlockBegin
  2
*D50
 70
     1
 10
0.0
 20
0.0
 30
0.0
  3
*D50
  1

  0
LINE
  5
C9AA
330
C9A9
100
AcDbEntity
  8
30
  6
Continuous
 62
     0
370
    -2
100
AcDbLine
 10
-69.99999999999975
 20
377.3231618618495
 30
0.0
 11
-69.99999999999975
 21
428.9789958274328
 31
0.0
  0
LINE
  5
C9AB
330
C9A9
100
AcDbEntity
  8
30
  6
Continuous
 62
     0
370
    -2
100
AcDbLine
 10
0.000000000000256
 20
377.3231618618495
 30
0.0
 11
0.0000000000002591
 21
428.9789958274328
 31
0.0
  0
LINE
  5
C9AC
330
C9A9
100
AcDbEntity
  8
30
  6
Continuous
 62
     0
370
    -2
100
AcDbLine
 10
-67.99999999999974
 20
428.4789958274328
 30
0.0
 11
-1.99999999999974
 21
428.4789958274328
 31
0.0
  0
INSERT
  5
C9AD
330
C9A9
100
AcDbEntity
  8
30
  6
Continuous
 62
     0
370
    -2
100
AcDbBlockReference
  2
_OPEN
 10
-69.99999999999975
 20
428.4789958274328
 30
0.0
 41
2.0
 42
2.0
 43
2.0
 50
180.0
  0
INSERT
  5
C9AE
330
C9A9
100
AcDbEntity
  8
30
  6
Continuous
 62
     0
370
    -2
100
AcDbBlockReference
  2
_OPEN
 10
0.0000000000002591
 20
428.4789958274328
 30
0.0
 41
2.0
 42
2.0
 43
2.0
  0
MTEXT
  5
C9AF
330
C9A9
100
AcDbEntity
  8
30
  6
Continuous
 62
     0
100
AcDbMText
 10
-34.99999999999974
 20
434.4789958274327
 30
0.0
 40
6.0
 41
0.0
 71
     5
 72
     1
  1
\A1;70
 73
     1
 44
1.0
  0
POINT
  5
C9B0
330
C9A9
100
AcDbEntity
  8
DEFPOINTS
  6
Continuous
 62
     0
100
AcDbPoint
 10
-69.99999999999975
 20
374.3231618618496
 30
0.0
  0
POINT
  5
C9B1
330
C9A9
100
AcDbEntity
  8
DEFPOINTS
  6
Continuous
 62
     0
100
AcDbPoint
 10
0.0000000000002558
 20
374.3231618618496
 30
0.0
  0
POINT
  5
C9B2
330
C9A9
100
AcDbEntity
  8
DEFPOINTS
  6
Continuous
 62
     0
100
AcDbPoint
 10
0.0000000000002591
 20
428.4789958274328
 30
0.0
  0
ENDBLK
  5
C9B4
330
C9A9
100
AcDbEntity
  8
0
100
AcDbBlockEnd
  0
BLOCK
  5
C9BF
330
C9B5
100
AcDbEntity
  8
0
100
AcDbBlockBegin
  2
*D51
 70
     1
 10
0.0
 20
0.0
 30
0.0
  3
*D51
  1

  0
LINE
  5
C9B6
330
C9B5
100
AcDbEntity
  8
30
  6
Continuous
 62
     0
370
    -2
100
AcDbLine
 10
-104.9999999999997
 20
411.3231618618495
 30
0.0
 11
-104.9999999999997
 21
428.9789958274328
 31
0.0
  0
LINE
  5
C9B7
330
C9B5
100
AcDbEntity
  8
30
  6
Continuous
 62
     0
370
    -2
100
AcDbLine
 10
-69.99999999999975
 20
377.3231618618495
 30
0.0
 11
-69.99999999999975
 21
428.9789958274328
 31
0.0
  0
LINE
  5
C9B8
330
C9B5
100
AcDbEntity
  8
30
  6
Continuous
 62
     0
370
    -2
100
AcDbLine
 10
-102.9999999999997
 20
428.4789958274328
 30
0.0
 11
-71.99999999999974
 21
428.4789958274328
 31
0.0
  0
INSERT
  5
C9B9
330
C9B5
100
AcDbEntity
  8
30
  6
Continuous
 62
     0
370
    -2
100
AcDbBlockReference
  2
_OPEN
 10
-104.9999999999997
 20
428.4789958274328
 30
0.0
 41
2.0
 42
2.0
 43
2.0
 50
180.0
  0
INSERT
  5
C9BA
330
C9B5
100
AcDbEntity
  8
30
  6
Continuous
 62
     0
370
    -2
100
AcDbBlockReference
  2
_OPEN
 10
-69.99999999999975
 20
428.4789958274328
 30
0.0
 41
2.0
 42
2.0
 43
2.0
  0
MTEXT
  5
C9BB
330
C9B5
100
AcDbEntity
  8
30
  6
Continuous
 62
     0
100
AcDbMText
 10
-87.49999999999975
 20
434.4789958274327
 30
0.0
 40
6.0
 41
0.0
 71
     5
 72
     1
  1
\A1;35
 73
     1
 44
1.0
  0
POINT
  5
C9BC
330
C9B5
100
AcDbEntity
  8
DEFPOINTS
  6
Continuous
 62
     0
100
AcDbPoint
 10
-104.9999999999997
 20
408.3231618618496
 30
0.0
  0
POINT
  5
C9BD
330
C9B5
100
AcDbEntity
  8
DEFPOINTS
  6
Continuous
 62
     0
100
AcDbPoint
 10
-69.99999999999975
 20
374.3231618618496
 30
0.0
  0
POINT
  5
C9BE
330
C9B5
100
AcDbEntity
  8
DEFPOINTS
  6
Continuous
 62
     0
100
AcDbPoint
 10
-69.99999999999975
 20
428.4789958274328
 30
0.0
  0
ENDBLK
  5
C9C0
330
C9B5
100
AcDbEntity
  8
0
100
AcDbBlockEnd
  0
BLOCK
  5
C9CB
330
C9C1
100
AcDbEntity
  8
0
100
AcDbBlockBegin
  2
*D52
 70
     1
 10
0.0
 20
0.0
 30
0.0
  3
*D52
  1

  0
LINE
  5
C9C2
330
C9C1
100
AcDbEntity
  8
30
  6
Continuous
 62
     0
370
    -2
100
AcDbLine
 10
0.000000000000256
 20
377.3231618618495
 30
0.0
 11
0.0000000000002591
 21
428.9789958274328
 31
0.0
  0
LINE
  5
C9C3
330
C9C1
100
AcDbEntity
  8
30
  6
Continuous
 62
     0
370
    -2
100
AcDbLine
 10
70.00000000000025
 20
377.3231618618495
 30
0.0
 11
70.00000000000025
 21
428.9789958274328
 31
0.0
  0
LINE
  5
C9C4
330
C9C1
100
AcDbEntity
  8
30
  6
Continuous
 62
     0
370
    -2
100
AcDbLine
 10
2.000000000000258
 20
428.4789958274328
 30
0.0
 11
68.00000000000025
 21
428.4789958274328
 31
0.0
  0
INSERT
  5
C9C5
330
C9C1
100
AcDbEntity
  8
30
  6
Continuous
 62
     0
370
    -2
100
AcDbBlockReference
  2
_OPEN
 10
0.0000000000002591
 20
428.4789958274328
 30
0.0
 41
2.0
 42
2.0
 43
2.0
 50
180.0
  0
INSERT
  5
C9C6
330
C9C1
100
AcDbEntity
  8
30
  6
Continuous
 62
     0
370
    -2
100
AcDbBlockReference
  2
_OPEN
 10
70.00000000000025
 20
428.4789958274328
 30
0.0
 41
2.0
 42
2.0
 43
2.0
  0
MTEXT
  5
C9C7
330
C9C1
100
AcDbEntity
  8
30
  6
Continuous
 62
     0
100
AcDbMText
 10
35.00000000000025
 20
434.4789958274327
 30
0.0
 40
6.0
 41
0.0
 71
     5
 72
     1
  1
\A1;70
 73
     1
 44
1.0
  0
POINT
  5
C9C8
330
C9C1
100
AcDbEntity
  8
DEFPOINTS
  6
Continuous
 62
     0
100
AcDbPoint
 10
0.0000000000002558
 20
374.3231618618496
 30
0.0
  0
POINT
  5
C9C9
330
C9C1
100
AcDbEntity
  8
DEFPOINTS
  6
Continuous
 62
     0
100
AcDbPoint
 10
70.00000000000025
 20
374.3231618618496
 30
0.0
  0
POINT
  5
C9CA
330
C9C1
100
AcDbEntity
  8
DEFPOINTS
  6
Continuous
 62
     0
100
AcDbPoint
 10
70.00000000000025
 20
428.4789958274328
 30
0.0
  0
ENDBLK
  5
C9CC
330
C9C1
100
AcDbEntity
  8
0
100
AcDbBlockEnd
  0
BLOCK
  5
C9D7
330
C9CD
100
AcDbEntity
  8
0
100
AcDbBlockBegin
  2
*D53
 70
     1
 10
0.0
 20
0.0
 30
0.0
  3
*D53
  1

  0
LINE
  5
C9CE
330
C9CD
100
AcDbEntity
  8
30
  6
Continuous
 62
     0
370
    -2
100
AcDbLine
 10
70.00000000000025
 20
377.3231618618495
 30
0.0
 11
70.00000000000025
 21
428.9789958274328
 31
0.0
  0
LINE
  5
C9CF
330
C9CD
100
AcDbEntity
  8
30
  6
Continuous
 62
     0
370
    -2
100
AcDbLine
 10
104.9999999999995
 20
411.3231618618495
 30
0.0
 11
104.9999999999995
 21
428.9789958274328
 31
0.0
  0
LINE
  5
C9D0
330
C9CD
100
AcDbEntity
  8
30
  6
Continuous
 62
     0
370
    -2
100
AcDbLine
 10
72.00000000000025
 20
428.4789958274328
 30
0.0
 11
102.9999999999995
 21
428.4789958274328
 31
0.0
  0
INSERT
  5
C9D1
330
C9CD
100
AcDbEntity
  8
30
  6
Continuous
 62
     0
370
    -2
100
AcDbBlockReference
  2
_OPEN
 10
70.00000000000025
 20
428.4789958274328
 30
0.0
 41
2.0
 42
2.0
 43
2.0
 50
180.0
  0
INSERT
  5
C9D2
330
C9CD
100
AcDbEntity
  8
30
  6
Continuous
 62
     0
370
    -2
100
AcDbBlockReference
  2
_OPEN
 10
104.9999999999995
 20
428.4789958274328
 30
0.0
 41
2.0
 42
2.0
 43
2.0
  0
MTEXT
  5
C9D3
330
C9CD
100
AcDbEntity
  8
30
  6
Continuous
 62
     0
100
AcDbMText
 10
87.49999999999991
 20
434.4789958274327
 30
0.0
 40
6.0
 41
0.0
 71
     5
 72
     1
  1
\A1;35
 73
     1
 44
1.0
  0
POINT
  5
C9D4
330
C9CD
100
AcDbEntity
  8
DEFPOINTS
  6
Continuous
 62
     0
100
AcDbPoint
 10
70.00000000000025
 20
374.3231618618496
 30
0.0
  0
POINT
  5
C9D5
330
C9CD
100
AcDbEntity
  8
DEFPOINTS
  6
Continuous
 62
     0
100
AcDbPoint
 10
104.9999999999995
 20
408.3231618618495
 30
0.0
  0
POINT
  5
C9D6
330
C9CD
100
AcDbEntity
  8
DEFPOINTS
  6
Continuous
 62
     0
100
AcDbPoint
 10
104.9999999999995
 20
428.4789958274328
 30
0.0
  0
ENDBLK
  5
C9D8
330
C9CD
100
AcDbEntity
  8
0
100
AcDbBlockEnd
  0
BLOCK
  5
C9DE
330
C9D9
100
AcDbEntity
  8
0
100
AcDbBlockBegin
  2
A$C54213600
 70
     0
 10
0.0
 20
0.0
 30
0.0
  3
A$C54213600
  1

  0
DIMENSION
  5
C9DA
330
C9D9
100
AcDbEntity
  8
30
  6
Continuous
100
AcDbDimension
  2
*D52
 10
175.0
 20
20.15583396558321
 30
0.0
 11
140.0
 21
26.15583396558321
 31
0.0
 12
104.9999999999997
 22
-408.3231618618496
 32
0.0
 71
     5
 42
70.0
  3
STANDARD1
100
AcDbAlignedDimension
 13
105.0
 23
-34.0
 33
0.0
 14
175.0
 24
-34.0
 34
0.0
100
AcDbRotatedDimension
  0
DIMENSION
  5
C9DB
330
C9D9
100
AcDbEntity
  8
30
  6
Continuous
100
AcDbDimension
  2
*D50
 10
105.0
 20
20.15583396558321
 30
0.0
 11
70.0
 21
26.15583396558321
 31
0.0
 12
104.9999999999997
 22
-408.3231618618496
 32
0.0
 71
     5
 42
70.0
  3
STANDARD1
100
AcDbAlignedDimension
 13
35.0
 23
-34.0
 33
0.0
 14
105.0
 24
-34.0
 34
0.0
100
AcDbRotatedDimension
  0
DIMENSION
  5
C9DC
330
C9D9
100
AcDbEntity
  8
30
  6
Continuous
100
AcDbDimension
  2
*D53
 10
209.9999999999992
 20
20.15583396558321
 30
0.0
 11
192.4999999999996
 21
26.15583396558321
 31
0.0
 12
104.9999999999997
 22
-408.3231618618496
 32
0.0
 71
     5
 42
34.99999999999928
  3
STANDARD1
100
AcDbAlignedDimension
 13
175.0
 23
-34.0
 33
0.0
 14
209.9999999999992
 24
-0.0000000000000568
 34
0.0
100
AcDbRotatedDimension
  0
DIMENSION
  5
C9DD
330
C9D9
100
AcDbEntity
  8
30
  6
Continuous
100
AcDbDimension
  2
*D51
 10
35.0
 20
20.15583396558321
 30
0.0
 11
17.5
 21
26.15583396558321
 31
0.0
 12
104.9999999999997
 22
-408.3231618618496
 32
0.0
 71
     5
 42
35.0
  3
STANDARD1
100
AcDbAlignedDimension
 13
0.0
 23
0.0
 33
0.0
 14
35.0
 24
-34.0
 34
0.0
100
AcDbRotatedDimension
  0
ENDBLK
  5
C9DF
330
C9D9
100
AcDbEntity
  8
0
100
AcDbBlockEnd
  0
BLOCK
  5
C9EC
330
C9E2
100
AcDbEntity
  8
0
100
AcDbBlockBegin
  2
*D55
 70
     1
 10
0.0
 20
0.0
 30
0.0
  3
*D55
  1

  0
LINE
  5
C9E3
330
C9E2
100
AcDbEntity
  8
30
  6
Continuous
 62
     0
370
    -2
100
AcDbLine
 10
-69.99999999999975
 20
377.3231618618495
 30
0.0
 11
-69.99999999999975
 21
428.9789958274328
 31
0.0
  0
LINE
  5
C9E4
330
C9E2
100
AcDbEntity
  8
30
  6
Continuous
 62
     0
370
    -2
100
AcDbLine
 10
0.000000000000256
 20
377.3231618618495
 30
0.0
 11
0.0000000000002591
 21
428.9789958274328
 31
0.0
  0
LINE
  5
C9E5
330
C9E2
100
AcDbEntity
  8
30
  6
Continuous
 62
     0
370
    -2
100
AcDbLine
 10
-67.99999999999974
 20
428.4789958274328
 30
0.0
 11
-1.99999999999974
 21
428.4789958274328
 31
0.0
  0
INSERT
  5
C9E6
330
C9E2
100
AcDbEntity
  8
30
  6
Continuous
 62
     0
370
    -2
100
AcDbBlockReference
  2
_OPEN
 10
-69.99999999999975
 20
428.4789958274328
 30
0.0
 41
2.0
 42
2.0
 43
2.0
 50
180.0
  0
INSERT
  5
C9E7
330
C9E2
100
AcDbEntity
  8
30
  6
Continuous
 62
     0
370
    -2
100
AcDbBlockReference
  2
_OPEN
 10
0.0000000000002591
 20
428.4789958274328
 30
0.0
 41
2.0
 42
2.0
 43
2.0
  0
MTEXT
  5
C9E8
330
C9E2
100
AcDbEntity
  8
30
  6
Continuous
 62
     0
100
AcDbMText
 10
-34.99999999999974
 20
434.4789958274327
 30
0.0
 40
6.0
 41
0.0
 71
     5
 72
     1
  1
\A1;70
 73
     1
 44
1.0
  0
POINT
  5
C9E9
330
C9E2
100
AcDbEntity
  8
DEFPOINTS
  6
Continuous
 62
     0
100
AcDbPoint
 10
-69.99999999999975
 20
374.3231618618496
 30
0.0
  0
POINT
  5
C9EA
330
C9E2
100
AcDbEntity
  8
DEFPOINTS
  6
Continuous
 62
     0
100
AcDbPoint
 10
0.0000000000002558
 20
374.3231618618496
 30
0.0
  0
POINT
  5
C9EB
330
C9E2
100
AcDbEntity
  8
DEFPOINTS
  6
Continuous
 62
     0
100
AcDbPoint
 10
0.0000000000002591
 20
428.4789958274328
 30
0.0
  0
ENDBLK
  5
C9ED
330
C9E2
100
AcDbEntity
  8
0
100
AcDbBlockEnd
  0
BLOCK
  5
C9F8
330
C9EE
100
AcDbEntity
  8
0
100
AcDbBlockBegin
  2
*D56
 70
     1
 10
0.0
 20
0.0
 30
0.0
  3
*D56
  1

  0
LINE
  5
C9EF
330
C9EE
100
AcDbEntity
  8
30
  6
Continuous
 62
     0
370
    -2
100
AcDbLine
 10
-104.9999999999997
 20
411.3231618618495
 30
0.0
 11
-104.9999999999997
 21
428.9789958274328
 31
0.0
  0
LINE
  5
C9F0
330
C9EE
100
AcDbEntity
  8
30
  6
Continuous
 62
     0
370
    -2
100
AcDbLine
 10
-69.99999999999975
 20
377.3231618618495
 30
0.0
 11
-69.99999999999975
 21
428.9789958274328
 31
0.0
  0
LINE
  5
C9F1
330
C9EE
100
AcDbEntity
  8
30
  6
Continuous
 62
     0
370
    -2
100
AcDbLine
 10
-102.9999999999997
 20
428.4789958274328
 30
0.0
 11
-71.99999999999974
 21
428.4789958274328
 31
0.0
  0
INSERT
  5
C9F2
330
C9EE
100
AcDbEntity
  8
30
  6
Continuous
 62
     0
370
    -2
100
AcDbBlockReference
  2
_OPEN
 10
-104.9999999999997
 20
428.4789958274328
 30
0.0
 41
2.0
 42
2.0
 43
2.0
 50
180.0
  0
INSERT
  5
C9F3
330
C9EE
100
AcDbEntity
  8
30
  6
Continuous
 62
     0
370
    -2
100
AcDbBlockReference
  2
_OPEN
 10
-69.99999999999975
 20
428.4789958274328
 30
0.0
 41
2.0
 42
2.0
 43
2.0
  0
MTEXT
  5
C9F4
330
C9EE
100
AcDbEntity
  8
30
  6
Continuous
 62
     0
100
AcDbMText
 10
-87.49999999999975
 20
434.4789958274327
 30
0.0
 40
6.0
 41
0.0
 71
     5
 72
     1
  1
\A1;35
 73
     1
 44
1.0
  0
POINT
  5
C9F5
330
C9EE
100
AcDbEntity
  8
DEFPOINTS
  6
Continuous
 62
     0
100
AcDbPoint
 10
-104.9999999999997
 20
408.3231618618496
 30
0.0
  0
POINT
  5
C9F6
330
C9EE
100
AcDbEntity
  8
DEFPOINTS
  6
Continuous
 62
     0
100
AcDbPoint
 10
-69.99999999999975
 20
374.3231618618496
 30
0.0
  0
POINT
  5
C9F7
330
C9EE
100
AcDbEntity
  8
DEFPOINTS
  6
Continuous
 62
     0
100
AcDbPoint
 10
-69.99999999999975
 20
428.4789958274328
 30
0.0
  0
ENDBLK
  5
C9F9
330
C9EE
100
AcDbEntity
  8
0
100
AcDbBlockEnd
  0
BLOCK
  5
CA04
330
C9FA
100
AcDbEntity
  8
0
100
AcDbBlockBegin
  2
*D57
 70
     1
 10
0.0
 20
0.0
 30
0.0
  3
*D57
  1

  0
LINE
  5
C9FB
330
C9FA
100
AcDbEntity
  8
30
  6
Continuous
 62
     0
370
    -2
100
AcDbLine
 10
0.000000000000256
 20
377.3231618618495
 30
0.0
 11
0.0000000000002591
 21
428.9789958274328
 31
0.0
  0
LINE
  5
C9FC
330
C9FA
100
AcDbEntity
  8
30
  6
Continuous
 62
     0
370
    -2
100
AcDbLine
 10
70.00000000000025
 20
377.3231618618495
 30
0.0
 11
70.00000000000025
 21
428.9789958274328
 31
0.0
  0
LINE
  5
C9FD
330
C9FA
100
AcDbEntity
  8
30
  6
Continuous
 62
     0
370
    -2
100
AcDbLine
 10
2.000000000000258
 20
428.4789958274328
 30
0.0
 11
68.00000000000025
 21
428.4789958274328
 31
0.0
  0
INSERT
  5
C9FE
330
C9FA
100
AcDbEntity
  8
30
  6
Continuous
 62
     0
370
    -2
100
AcDbBlockReference
  2
_OPEN
 10
0.0000000000002591
 20
428.4789958274328
 30
0.0
 41
2.0
 42
2.0
 43
2.0
 50
180.0
  0
INSERT
  5
C9FF
330
C9FA
100
AcDbEntity
  8
30
  6
Continuous
 62
     0
370
    -2
100
AcDbBlockReference
  2
_OPEN
 10
70.00000000000025
 20
428.4789958274328
 30
0.0
 41
2.0
 42
2.0
 43
2.0
  0
MTEXT
  5
CA00
330
C9FA
100
AcDbEntity
  8
30
  6
Continuous
 62
     0
100
AcDbMText
 10
35.00000000000025
 20
434.4789958274327
 30
0.0
 40
6.0
 41
0.0
 71
     5
 72
     1
  1
\A1;70
 73
     1
 44
1.0
  0
POINT
  5
CA01
330
C9FA
100
AcDbEntity
  8
DEFPOINTS
  6
Continuous
 62
     0
100
AcDbPoint
 10
0.0000000000002558
 20
374.3231618618496
 30
0.0
  0
POINT
  5
CA02
330
C9FA
100
AcDbEntity
  8
DEFPOINTS
  6
Continuous
 62
     0
100
AcDbPoint
 10
70.00000000000025
 20
374.3231618618496
 30
0.0
  0
POINT
  5
CA03
330
C9FA
100
AcDbEntity
  8
DEFPOINTS
  6
Continuous
 62
     0
100
AcDbPoint
 10
70.00000000000025
 20
428.4789958274328
 30
0.0
  0
ENDBLK
  5
CA05
330
C9FA
100
AcDbEntity
  8
0
100
AcDbBlockEnd
  0
BLOCK
  5
CA10
330
CA06
100
AcDbEntity
  8
0
100
AcDbBlockBegin
  2
*D58
 70
     1
 10
0.0
 20
0.0
 30
0.0
  3
*D58
  1

  0
LINE
  5
CA07
330
CA06
100
AcDbEntity
  8
30
  6
Continuous
 62
     0
370
    -2
100
AcDbLine
 10
70.00000000000025
 20
377.3231618618495
 30
0.0
 11
70.00000000000025
 21
428.9789958274328
 31
0.0
  0
LINE
  5
CA08
330
CA06
100
AcDbEntity
  8
30
  6
Continuous
 62
     0
370
    -2
100
AcDbLine
 10
104.9999999999995
 20
411.3231618618495
 30
0.0
 11
104.9999999999995
 21
428.9789958274328
 31
0.0
  0
LINE
  5
CA09
330
CA06
100
AcDbEntity
  8
30
  6
Continuous
 62
     0
370
    -2
100
AcDbLine
 10
72.00000000000025
 20
428.4789958274328
 30
0.0
 11
102.9999999999995
 21
428.4789958274328
 31
0.0
  0
INSERT
  5
CA0A
330
CA06
100
AcDbEntity
  8
30
  6
Continuous
 62
     0
370
    -2
100
AcDbBlockReference
  2
_OPEN
 10
70.00000000000025
 20
428.4789958274328
 30
0.0
 41
2.0
 42
2.0
 43
2.0
 50
180.0
  0
INSERT
  5
CA0B
330
CA06
100
AcDbEntity
  8
30
  6
Continuous
 62
     0
370
    -2
100
AcDbBlockReference
  2
_OPEN
 10
104.9999999999995
 20
428.4789958274328
 30
0.0
 41
2.0
 42
2.0
 43
2.0
  0
MTEXT
  5
CA0C
330
CA06
100
AcDbEntity
  8
30
  6
Continuous
 62
     0
100
AcDbMText
 10
87.49999999999991
 20
434.4789958274327
 30
0.0
 40
6.0
 41
0.0
 71
     5
 72
     1
  1
\A1;35
 73
     1
 44
1.0
  0
POINT
  5
CA0D
330
CA06
100
AcDbEntity
  8
DEFPOINTS
  6
Continuous
 62
     0
100
AcDbPoint
 10
70.00000000000025
 20
374.3231618618496
 30
0.0
  0
POINT
  5
CA0E
330
CA06
100
AcDbEntity
  8
DEFPOINTS
  6
Continuous
 62
     0
100
AcDbPoint
 10
104.9999999999995
 20
408.3231618618495
 30
0.0
  0
POINT
  5
CA0F
330
CA06
100
AcDbEntity
  8
DEFPOINTS
  6
Continuous
 62
     0
100
AcDbPoint
 10
104.9999999999995
 20
428.4789958274328
 30
0.0
  0
ENDBLK
  5
CA11
330
CA06
100
AcDbEntity
  8
0
100
AcDbBlockEnd
  0
BLOCK
  5
CA28
330
CA1E
100
AcDbEntity
  8
0
100
AcDbBlockBegin
  2
*D60
 70
     1
 10
0.0
 20
0.0
 30
0.0
  3
*D60
  1

  0
LINE
  5
CA72
330
CA1E
100
AcDbEntity
  8
30
  6
Continuous
 62
     0
370
    -2
100
AcDbLine
 10
70.00000000000024
 20
377.3526745713751
 30
0.0
 11
70.00000000000024
 21
429.0085085369583
 31
0.0
  0
LINE
  5
CA73
330
CA1E
100
AcDbEntity
  8
30
  6
Continuous
 62
     0
370
    -2
100
AcDbLine
 10
140.0000000000002
 20
377.3526745713751
 30
0.0
 11
140.0000000000002
 21
429.0085085369583
 31
0.0
  0
LINE
  5
CA74
330
CA1E
100
AcDbEntity
  8
30
  6
Continuous
 62
     0
370
    -2
100
AcDbLine
 10
72.00000000000024
 20
428.5085085369583
 30
0.0
 11
138.0000000000002
 21
428.5085085369583
 31
0.0
  0
INSERT
  5
CA75
330
CA1E
100
AcDbEntity
  8
30
  6
Continuous
 62
     0
370
    -2
100
AcDbBlockReference
  2
_OPEN
 10
70.00000000000024
 20
428.5085085369583
 30
0.0
 41
2.0
 42
2.0
 43
2.0
 50
180.0
  0
INSERT
  5
CA76
330
CA1E
100
AcDbEntity
  8
30
  6
Continuous
 62
     0
370
    -2
100
AcDbBlockReference
  2
_OPEN
 10
140.0000000000002
 20
428.5085085369583
 30
0.0
 41
2.0
 42
2.0
 43
2.0
  0
MTEXT
  5
CA77
330
CA1E
100
AcDbEntity
  8
30
  6
Continuous
 62
     0
100
AcDbMText
 10
105.0000000000002
 20
434.5085085369583
 30
0.0
 40
6.0
 41
0.0
 71
     5
 72
     1
  1
\A1;70
 73
     1
 44
1.0
  0
POINT
  5
CA78
330
CA1E
100
AcDbEntity
  8
DEFPOINTS
  6
Continuous
 62
     0
100
AcDbPoint
 10
70.00000000000024
 20
374.3526745713751
 30
0.0
  0
POINT
  5
CA79
330
CA1E
100
AcDbEntity
  8
DEFPOINTS
  6
Continuous
 62
     0
100
AcDbPoint
 10
140.0000000000002
 20
374.3526745713751
 30
0.0
  0
POINT
  5
CA7A
330
CA1E
100
AcDbEntity
  8
DEFPOINTS
  6
Continuous
 62
     0
100
AcDbPoint
 10
140.0000000000002
 20
428.5085085369583
 30
0.0
  0
ENDBLK
  5
CA29
330
CA1E
100
AcDbEntity
  8
0
100
AcDbBlockEnd
  0
BLOCK
  5
CA34
330
CA2A
100
AcDbEntity
  8
0
100
AcDbBlockBegin
  2
*D61
 70
     1
 10
0.0
 20
0.0
 30
0.0
  3
*D61
  1

  0
LINE
  5
CA57
330
CA2A
100
AcDbEntity
  8
30
  6
Continuous
 62
     0
370
    -2
100
AcDbLine
 10
-69.99999999999977
 20
377.3526745713751
 30
0.0
 11
-69.99999999999977
 21
429.0085085369583
 31
0.0
  0
LINE
  5
CA58
330
CA2A
100
AcDbEntity
  8
30
  6
Continuous
 62
     0
370
    -2
100
AcDbLine
 10
0.0000000000002276
 20
377.3526745713751
 30
0.0
 11
0.0000000000002307
 21
429.0085085369583
 31
0.0
  0
LINE
  5
CA59
330
CA2A
100
AcDbEntity
  8
30
  6
Continuous
 62
     0
370
    -2
100
AcDbLine
 10
-67.99999999999977
 20
428.5085085369583
 30
0.0
 11
-1.999999999999769
 21
428.5085085369583
 31
0.0
  0
INSERT
  5
CA5A
330
CA2A
100
AcDbEntity
  8
30
  6
Continuous
 62
     0
370
    -2
100
AcDbBlockReference
  2
_OPEN
 10
-69.99999999999977
 20
428.5085085369583
 30
0.0
 41
2.0
 42
2.0
 43
2.0
 50
180.0
  0
INSERT
  5
CA5B
330
CA2A
100
AcDbEntity
  8
30
  6
Continuous
 62
     0
370
    -2
100
AcDbBlockReference
  2
_OPEN
 10
0.0000000000002307
 20
428.5085085369583
 30
0.0
 41
2.0
 42
2.0
 43
2.0
  0
MTEXT
  5
CA5C
330
CA2A
100
AcDbEntity
  8
30
  6
Continuous
 62
     0
100
AcDbMText
 10
-34.99999999999977
 20
434.5085085369583
 30
0.0
 40
6.0
 41
0.0
 71
     5
 72
     1
  1
\A1;70
 73
     1
 44
1.0
  0
POINT
  5
CA5D
330
CA2A
100
AcDbEntity
  8
DEFPOINTS
  6
Continuous
 62
     0
100
AcDbPoint
 10
-69.99999999999977
 20
374.3526745713751
 30
0.0
  0
POINT
  5
CA5E
330
CA2A
100
AcDbEntity
  8
DEFPOINTS
  6
Continuous
 62
     0
100
AcDbPoint
 10
0.0000000000002274
 20
374.3526745713751
 30
0.0
  0
POINT
  5
CA5F
330
CA2A
100
AcDbEntity
  8
DEFPOINTS
  6
Continuous
 62
     0
100
AcDbPoint
 10
0.0000000000002307
 20
428.5085085369583
 30
0.0
  0
ENDBLK
  5
CA35
330
CA2A
100
AcDbEntity
  8
0
100
AcDbBlockEnd
  0
BLOCK
  5
CA40
330
CA36
100
AcDbEntity
  8
0
100
AcDbBlockBegin
  2
*D62
 70
     1
 10
0.0
 20
0.0
 30
0.0
  3
*D62
  1

  0
LINE
  5
CA7B
330
CA36
100
AcDbEntity
  8
30
  6
Continuous
 62
     0
370
    -2
100
AcDbLine
 10
140.0000000000002
 20
377.3526745713751
 30
0.0
 11
140.0000000000002
 21
429.0085085369583
 31
0.0
  0
LINE
  5
CA7C
330
CA36
100
AcDbEntity
  8
30
  6
Continuous
 62
     0
370
    -2
100
AcDbLine
 10
174.9999999999995
 20
411.352674571375
 30
0.0
 11
174.9999999999995
 21
429.0085085369583
 31
0.0
  0
LINE
  5
CA7D
330
CA36
100
AcDbEntity
  8
30
  6
Continuous
 62
     0
370
    -2
100
AcDbLine
 10
142.0000000000002
 20
428.5085085369583
 30
0.0
 11
172.9999999999995
 21
428.5085085369583
 31
0.0
  0
INSERT
  5
CA7E
330
CA36
100
AcDbEntity
  8
30
  6
Continuous
 62
     0
370
    -2
100
AcDbBlockReference
  2
_OPEN
 10
140.0000000000002
 20
428.5085085369583
 30
0.0
 41
2.0
 42
2.0
 43
2.0
 50
180.0
  0
INSERT
  5
CA7F
330
CA36
100
AcDbEntity
  8
30
  6
Continuous
 62
     0
370
    -2
100
AcDbBlockReference
  2
_OPEN
 10
174.9999999999995
 20
428.5085085369583
 30
0.0
 41
2.0
 42
2.0
 43
2.0
  0
MTEXT
  5
CA80
330
CA36
100
AcDbEntity
  8
30
  6
Continuous
 62
     0
100
AcDbMText
 10
157.4999999999998
 20
434.5085085369583
 30
0.0
 40
6.0
 41
0.0
 71
     5
 72
     1
  1
\A1;35
 73
     1
 44
1.0
  0
POINT
  5
CA81
330
CA36
100
AcDbEntity
  8
DEFPOINTS
  6
Continuous
 62
     0
100
AcDbPoint
 10
140.0000000000002
 20
374.3526745713751
 30
0.0
  0
POINT
  5
CA82
330
CA36
100
AcDbEntity
  8
DEFPOINTS
  6
Continuous
 62
     0
100
AcDbPoint
 10
174.9999999999995
 20
408.3526745713751
 30
0.0
  0
POINT
  5
CA83
330
CA36
100
AcDbEntity
  8
DEFPOINTS
  6
Continuous
 62
     0
100
AcDbPoint
 10
174.9999999999995
 20
428.5085085369583
 30
0.0
  0
ENDBLK
  5
CA41
330
CA36
100
AcDbEntity
  8
0
100
AcDbBlockEnd
  0
BLOCK
  5
CA4C
330
CA42
100
AcDbEntity
  8
0
100
AcDbBlockBegin
  2
*D63
 70
     1
 10
0.0
 20
0.0
 30
0.0
  3
*D63
  1

  0
LINE
  5
CA69
330
CA42
100
AcDbEntity
  8
30
  6
Continuous
 62
     0
370
    -2
100
AcDbLine
 10
-104.9999999999997
 20
411.3526745713751
 30
0.0
 11
-104.9999999999997
 21
429.0085085369583
 31
0.0
  0
LINE
  5
CA6A
330
CA42
100
AcDbEntity
  8
30
  6
Continuous
 62
     0
370
    -2
100
AcDbLine
 10
-69.99999999999977
 20
377.3526745713751
 30
0.0
 11
-69.99999999999977
 21
429.0085085369583
 31
0.0
  0
LINE
  5
CA6B
330
CA42
100
AcDbEntity
  8
30
  6
Continuous
 62
     0
370
    -2
100
AcDbLine
 10
-102.9999999999997
 20
428.5085085369583
 30
0.0
 11
-71.99999999999977
 21
428.5085085369583
 31
0.0
  0
INSERT
  5
CA6C
330
CA42
100
AcDbEntity
  8
30
  6
Continuous
 62
     0
370
    -2
100
AcDbBlockReference
  2
_OPEN
 10
-104.9999999999997
 20
428.5085085369583
 30
0.0
 41
2.0
 42
2.0
 43
2.0
 50
180.0
  0
INSERT
  5
CA6D
330
CA42
100
AcDbEntity
  8
30
  6
Continuous
 62
     0
370
    -2
100
AcDbBlockReference
  2
_OPEN
 10
-69.99999999999977
 20
428.5085085369583
 30
0.0
 41
2.0
 42
2.0
 43
2.0
  0
MTEXT
  5
CA6E
330
CA42
100
AcDbEntity
  8
30
  6
Continuous
 62
     0
100
AcDbMText
 10
-87.49999999999976
 20
434.5085085369583
 30
0.0
 40
6.0
 41
0.0
 71
     5
 72
     1
  1
\A1;35
 73
     1
 44
1.0
  0
POINT
  5
CA6F
330
CA42
100
AcDbEntity
  8
DEFPOINTS
  6
Continuous
 62
     0
100
AcDbPoint
 10
-104.9999999999997
 20
408.3526745713751
 30
0.0
  0
POINT
  5
CA70
330
CA42
100
AcDbEntity
  8
DEFPOINTS
  6
Continuous
 62
     0
100
AcDbPoint
 10
-69.99999999999977
 20
374.3526745713751
 30
0.0
  0
POINT
  5
CA71
330
CA42
100
AcDbEntity
  8
DEFPOINTS
  6
Continuous
 62
     0
100
AcDbPoint
 10
-69.99999999999977
 20
428.5085085369583
 30
0.0
  0
ENDBLK
  5
CA4D
330
CA42
100
AcDbEntity
  8
0
100
AcDbBlockEnd
  0
BLOCK
  5
CA8F
330
CA85
100
AcDbEntity
  8
0
100
AcDbBlockBegin
  2
*D64
 70
     1
 10
0.0
 20
0.0
 30
0.0
  3
*D64
  1

  0
LINE
  5
CA91
330
CA85
100
AcDbEntity
  8
30
  6
Continuous
 62
     0
370
    -2
100
AcDbLine
 10
0.0000000000002418
 20
377.3526745713751
 30
0.0
 11
0.0000000000002449
 21
429.0085085369583
 31
0.0
  0
LINE
  5
CA92
330
CA85
100
AcDbEntity
  8
30
  6
Continuous
 62
     0
370
    -2
100
AcDbLine
 10
70.00000000000023
 20
377.3526745713751
 30
0.0
 11
70.00000000000023
 21
429.0085085369583
 31
0.0
  0
LINE
  5
CA93
330
CA85
100
AcDbEntity
  8
30
  6
Continuous
 62
     0
370
    -2
100
AcDbLine
 10
2.000000000000244
 20
428.5085085369583
 30
0.0
 11
68.00000000000022
 21
428.5085085369583
 31
0.0
  0
INSERT
  5
CA94
330
CA85
100
AcDbEntity
  8
30
  6
Continuous
 62
     0
370
    -2
100
AcDbBlockReference
  2
_OPEN
 10
0.0000000000002449
 20
428.5085085369583
 30
0.0
 41
2.0
 42
2.0
 43
2.0
 50
180.0
  0
INSERT
  5
CA95
330
CA85
100
AcDbEntity
  8
30
  6
Continuous
 62
     0
370
    -2
100
AcDbBlockReference
  2
_OPEN
 10
70.00000000000023
 20
428.5085085369583
 30
0.0
 41
2.0
 42
2.0
 43
2.0
  0
MTEXT
  5
CA96
330
CA85
100
AcDbEntity
  8
30
  6
Continuous
 62
     0
100
AcDbMText
 10
35.00000000000023
 20
434.5085085369583
 30
0.0
 40
6.0
 41
0.0
 71
     5
 72
     1
  1
\A1;70
 73
     1
 44
1.0
  0
POINT
  5
CA97
330
CA85
100
AcDbEntity
  8
DEFPOINTS
  6
Continuous
 62
     0
100
AcDbPoint
 10
0.0000000000002416
 20
374.3526745713751
 30
0.0
  0
POINT
  5
CA98
330
CA85
100
AcDbEntity
  8
DEFPOINTS
  6
Continuous
 62
     0
100
AcDbPoint
 10
70.00000000000023
 20
374.3526745713751
 30
0.0
  0
POINT
  5
CA99
330
CA85
100
AcDbEntity
  8
DEFPOINTS
  6
Continuous
 62
     0
100
AcDbPoint
 10
70.00000000000023
 20
428.5085085369583
 30
0.0
  0
ENDBLK
  5
CA90
330
CA85
100
AcDbEntity
  8
0
100
AcDbBlockEnd
  0
BLOCK
  5
CAA4
330
CA9D
100
AcDbEntity
  8
0
100
AcDbBlockBegin
  2
_D17
 70
     0
 10
0.0
 20
0.0
 30
0.0
  3
_D17
  1

  0
MTEXT
  5
CA9E
330
CA9D
100
AcDbEntity
  8
1
  6
Continuous
 62
     2
100
AcDbMText
 10
129.5807289999999
 20
189.192708
 30
0.0
 40
2.5
 41
0.0
 71
     7
 72
     5
  1
\W01.000;\fsimplex.shx;51
  7
blockfont
 73
     2
 44
0.9036139999999999
  0
LINE
  5
CA9F
330
CA9D
100
AcDbEntity
  8
1
 62
     4
100
AcDbLine
 10
128.1492199999999
 20
194.419175
 30
0.0
 11
128.1492199999999
 21
187.7499999999999
 31
0.0
  0
LINE
  5
CAA0
330
CA9D
100
AcDbEntity
  8
1
 62
     4
100
AcDbLine
 10
138.34922
 20
194.419175
 30
0.0
 11
138.34922
 21
187.7499999999999
 31
0.0
  0
LINE
  5
CAA1
330
CA9D
100
AcDbEntity
  8
1
 62
     4
100
AcDbLine
 10
128.1492199999999
 20
188.75
 30
0.0
 11
138.34922
 21
188.75
 31
0.0
  0
SOLID
  5
CAA2
330
CA9D
100
AcDbEntity
  8
1
 62
     4
100
AcDbTrace
 10
128.1492199999999
 20
188.75
 30
0.0
 11
130.1492189999999
 21
189.0900699999999
 31
0.0
 12
130.149222
 22
188.40993
 32
0.0
 13
128.1492199999999
 23
188.75
 33
0.0
  0
SOLID
  5
CAA3
330
CA9D
100
AcDbEntity
  8
1
 62
     4
100
AcDbTrace
 10
138.34922
 20
188.75
 30
0.0
 11
136.3492219999999
 21
188.40993
 31
0.0
 12
136.349219
 22
189.0900699999999
 32
0.0
 13
138.34922
 23
188.75
 33
0.0
  0
ENDBLK
  5
CAA5
330
CA9D
100
AcDbEntity
  8
0
100
AcDbBlockEnd
  0
BLOCK
  5
CAAD
330
CAA6
100
AcDbEntity
  8
0
100
AcDbBlockBegin
  2
_D19
 70
     0
 10
0.0
 20
0.0
 30
0.0
  3
_D19
  1

  0
MTEXT
  5
CAA7
330
CAA6
100
AcDbEntity
  8
1
  6
Continuous
 62
     2
100
AcDbMText
 10
126.5898439999999
 20
219.192708
 30
0.0
 40
2.5
 41
0.0
 71
     7
 72
     5
  1
\W01.000;\fsimplex.shx;170
  7
blockfont
 73
     2
 44
0.9036139999999999
  0
LINE
  5
CAA8
330
CAA6
100
AcDbEntity
  8
1
 62
     4
100
AcDbLine
 10
116.2492199999999
 20
213.4191749999999
 30
0.0
 11
116.2492199999999
 21
219.75
 31
0.0
  0
LINE
  5
CAA9
330
CAA6
100
AcDbEntity
  8
1
 62
     4
100
AcDbLine
 10
150.24922
 20
213.4191749999999
 30
0.0
 11
150.24922
 21
219.75
 31
0.0
  0
LINE
  5
CAAA
330
CAA6
100
AcDbEntity
  8
1
 62
     4
100
AcDbLine
 10
116.2492199999999
 20
218.75
 30
0.0
 11
150.24922
 21
218.75
 31
0.0
  0
SOLID
  5
CAAB
330
CAA6
100
AcDbEntity
  8
1
 62
     4
100
AcDbTrace
 10
116.2492199999999
 20
218.75
 30
0.0
 11
118.249219
 21
219.09007
 31
0.0
 12
118.249222
 22
218.4099299999999
 32
0.0
 13
116.2492199999999
 23
218.75
 33
0.0
  0
SOLID
  5
CAAC
330
CAA6
100
AcDbEntity
  8
1
 62
     4
100
AcDbTrace
 10
150.24922
 20
218.75
 30
0.0
 11
148.249222
 21
218.4099299999999
 31
0.0
 12
148.2492189999999
 22
219.09007
 32
0.0
 13
150.24922
 23
218.75
 33
0.0
  0
ENDBLK
  5
CAAE
330
CAA6
100
AcDbEntity
  8
0
100
AcDbBlockEnd
  0
BLOCK
  5
CAB6
330
CAAF
100
AcDbEntity
  8
0
100
AcDbBlockBegin
  2
_D43
 70
     0
 10
0.0
 20
0.0
 30
0.0
  3
_D43
  1

  0
MTEXT
  5
CAB0
330
CAAF
100
AcDbEntity
  8
1
  6
Continuous
 62
     2
100
AcDbMText
 10
173.807292
 20
205.5807289999999
 30
0.0
 40
2.5
 41
0.0
 71
     7
 72
     5
  1
\W01.000;\fsimplex.shx;90
  7
blockfont
 11
0.0
 21
1.0
 31
0.0
 73
     2
 44
0.9036139999999999
  0
LINE
  5
CAB1
330
CAAF
100
AcDbEntity
  8
1
 62
     4
100
AcDbLine
 10
150.24922
 20
213.4191749999999
 30
0.0
 11
175.2499999999999
 21
213.4191749999999
 31
0.0
  0
LINE
  5
CAB2
330
CAAF
100
AcDbEntity
  8
1
 62
     4
100
AcDbLine
 10
150.24922
 20
195.4191749999999
 30
0.0
 11
175.2499999999999
 21
195.4191749999999
 31
0.0
  0
LINE
  5
CAB3
330
CAAF
100
AcDbEntity
  8
1
 62
     4
100
AcDbLine
 10
174.2499999999999
 20
213.4191749999999
 30
0.0
 11
174.2499999999999
 21
195.4191749999999
 31
0.0
  0
SOLID
  5
CAB4
330
CAAF
100
AcDbEntity
  8
1
 62
     4
100
AcDbTrace
 10
174.2499999999999
 20
213.4191749999999
 30
0.0
 11
174.5900699999999
 21
211.419177
 31
0.0
 12
173.90993
 22
211.419174
 32
0.0
 13
174.2499999999999
 23
213.4191749999999
 33
0.0
  0
SOLID
  5
CAB5
330
CAAF
100
AcDbEntity
  8
1
 62
     4
100
AcDbTrace
 10
174.2499999999999
 20
195.4191749999999
 30
0.0
 11
173.90993
 21
197.419174
 31
0.0
 12
174.5900699999999
 22
197.419177
 32
0.0
 13
174.2499999999999
 23
195.4191749999999
 33
0.0
  0
ENDBLK
  5
CAB7
330
CAAF
100
AcDbEntity
  8
0
100
AcDbBlockEnd
  0
BLOCK
  5
CCE5
330
CCDA
100
AcDbEntity
  8
0
100
AcDbBlockBegin
  2
*D69
 70
     1
 10
0.0
 20
0.0
 30
0.0
  3
*D69
  1

  0
LINE
  5
CD1B
330
CCDA
100
AcDbEntity
  8
1
  6
Continuous
 62
     4
370
    -2
100
AcDbLine
 10
-1135.035129959416
 20
78.73424595614119
 30
0.0
 11
-1021.281229959416
 21
78.73424595614117
 31
0.0
  0
LINE
  5
CD1C
330
CCDA
100
AcDbEntity
  8
1
  6
Continuous
 62
     4
370
    -2
100
AcDbLine
 10
-1135.035129959416
 20
-11.2657540438588
 30
0.0
 11
-1021.281229959416
 21
-11.26575404385883
 31
0.0
  0
LINE
  5
CD1D
330
CCDA
100
AcDbEntity
  8
1
  6
Continuous
 62
     4
370
    -2
100
AcDbLine
 10
-1022.281229959416
 20
76.73424595614116
 30
0.0
 11
-1022.281229959416
 21
36.35924595614116
 31
0.0
  0
LINE
  5
CD1E
330
CCDA
100
AcDbEntity
  8
1
  6
Continuous
 62
     4
370
    -2
100
AcDbLine
 10
-1022.281229959416
 20
-9.265754043858837
 30
0.0
 11
-1022.281229959416
 21
31.10924595614116
 31
0.0
  0
INSERT
  5
CD1F
330
CCDA
100
AcDbEntity
  8
1
  6
Continuous
 62
     4
370
    -2
100
AcDbBlockReference
  2
_OPEN
 10
-1022.281229959416
 20
78.73424595614117
 30
0.0
 41
2.0
 42
2.0
 43
2.0
 50
90.0
  0
INSERT
  5
CD20
330
CCDA
100
AcDbEntity
  8
1
  6
Continuous
 62
     4
370
    -2
100
AcDbBlockReference
  2
_OPEN
 10
-1022.281229959416
 20
-11.26575404385883
 30
0.0
 41
2.0
 42
2.0
 43
2.0
 50
270.0
  0
MTEXT
  5
CD21
330
CCDA
100
AcDbEntity
  8
1
  6
Continuous
 62
     2
100
AcDbMText
 10
-1022.281229959416
 20
33.734245956141
 30
0.0
 40
2.5
 41
0.0
 71
     5
 72
     1
  1
\A1; 90 
 11
0.0000000000000001
 21
1.0
 31
0.0
 73
     1
 44
1.0
  0
POINT
  5
CD22
330
CCDA
100
AcDbEntity
  8
DEFPOINTS
  6
Continuous
 62
     0
100
AcDbPoint
 10
-1136.035129959416
 20
78.73424595614119
 30
0.0
  0
POINT
  5
CD23
330
CCDA
100
AcDbEntity
  8
DEFPOINTS
  6
Continuous
 62
     0
100
AcDbPoint
 10
-1136.035129959416
 20
-11.2657540438588
 30
0.0
  0
POINT
  5
CD24
330
CCDA
100
AcDbEntity
  8
DEFPOINTS
  6
Continuous
 62
     0
100
AcDbPoint
 10
-1022.281229959416
 20
-11.26575404385883
 30
0.0
  0
ENDBLK
  5
CCE6
330
CCDA
100
AcDbEntity
  8
0
100
AcDbBlockEnd
  0
BLOCK
  5
CCF1
330
CCE7
100
AcDbEntity
  8
0
100
AcDbBlockBegin
  2
*D70
 70
     1
 10
0.0
 20
0.0
 30
0.0
  3
*D70
  1

  0
LINE
  5
CD25
330
CCE7
100
AcDbEntity
  8
1
  6
Continuous
 62
     4
370
    -2
100
AcDbLine
 10
-1306.035129959416
 20
79.73424595614119
 30
0.0
 11
-1306.035129959416
 21
112.6383709561412
 31
0.0
  0
LINE
  5
CD26
330
CCE7
100
AcDbEntity
  8
1
  6
Continuous
 62
     4
370
    -2
100
AcDbLine
 10
-1136.035129959416
 20
79.73424595614119
 30
0.0
 11
-1136.035129959416
 21
112.6383709561412
 31
0.0
  0
LINE
  5
CD27
330
CCE7
100
AcDbEntity
  8
1
  6
Continuous
 62
     4
370
    -2
100
AcDbLine
 10
-1304.035129959416
 20
111.6383709561412
 30
0.0
 11
-1138.035129959416
 21
111.6383709561412
 31
0.0
  0
INSERT
  5
CD28
330
CCE7
100
AcDbEntity
  8
1
  6
Continuous
 62
     4
370
    -2
100
AcDbBlockReference
  2
_OPEN
 10
-1306.035129959416
 20
111.6383709561412
 30
0.0
 41
2.0
 42
2.0
 43
2.0
 50
180.0
  0
INSERT
  5
CD29
330
CCE7
100
AcDbEntity
  8
1
  6
Continuous
 62
     4
370
    -2
100
AcDbBlockReference
  2
_OPEN
 10
-1136.035129959416
 20
111.6383709561412
 30
0.0
 41
2.0
 42
2.0
 43
2.0
  0
MTEXT
  5
CD2A
330
CCE7
100
AcDbEntity
  8
1
  6
Continuous
 62
     2
100
AcDbMText
 10
-1221.035129959416
 20
112.8883709561412
 30
0.0
 40
2.5
 41
0.0
 71
     5
 72
     1
  1
\A1; 170 
 73
     1
 44
1.0
  0
POINT
  5
CD2B
330
CCE7
100
AcDbEntity
  8
DEFPOINTS
  6
Continuous
 62
     0
100
AcDbPoint
 10
-1306.035129959416
 20
78.73424595614119
 30
0.0
  0
POINT
  5
CD2C
330
CCE7
100
AcDbEntity
  8
DEFPOINTS
  6
Continuous
 62
     0
100
AcDbPoint
 10
-1136.035129959416
 20
78.73424595614119
 30
0.0
  0
POINT
  5
CD2D
330
CCE7
100
AcDbEntity
  8
DEFPOINTS
  6
Continuous
 62
     0
100
AcDbPoint
 10
-1136.035129959416
 20
111.6383709561412
 30
0.0
  0
ENDBLK
  5
CCF2
330
CCE7
100
AcDbEntity
  8
0
100
AcDbBlockEnd
  0
BLOCK
  5
CCFD
330
CCF3
100
AcDbEntity
  8
0
100
AcDbBlockBegin
  2
*D71
 70
     1
 10
0.0
 20
0.0
 30
0.0
  3
*D71
  1

  0
LINE
  5
CD2E
330
CCF3
100
AcDbEntity
  8
1
  6
Continuous
 62
     4
370
    -2
100
AcDbLine
 10
-1246.535129959417
 20
-17.2657540438588
 30
0.0
 11
-1246.535129959417
 21
-39.36162904385878
 31
0.0
  0
LINE
  5
CD2F
330
CCF3
100
AcDbEntity
  8
1
  6
Continuous
 62
     4
370
    -2
100
AcDbLine
 10
-1195.535129959417
 20
-17.2657540438588
 30
0.0
 11
-1195.535129959417
 21
-39.36162904385878
 31
0.0
  0
LINE
  5
CD30
330
CCF3
100
AcDbEntity
  8
1
  6
Continuous
 62
     4
370
    -2
100
AcDbLine
 10
-1244.535129959417
 20
-38.36162904385878
 30
0.0
 11
-1197.535129959417
 21
-38.36162904385878
 31
0.0
  0
INSERT
  5
CD31
330
CCF3
100
AcDbEntity
  8
1
  6
Continuous
 62
     4
370
    -2
100
AcDbBlockReference
  2
_OPEN
 10
-1246.535129959417
 20
-38.36162904385878
 30
0.0
 41
2.0
 42
2.0
 43
2.0
 50
180.0
  0
INSERT
  5
CD32
330
CCF3
100
AcDbEntity
  8
1
  6
Continuous
 62
     4
370
    -2
100
AcDbBlockReference
  2
_OPEN
 10
-1195.535129959417
 20
-38.36162904385878
 30
0.0
 41
2.0
 42
2.0
 43
2.0
  0
MTEXT
  5
CD33
330
CCF3
100
AcDbEntity
  8
1
  6
Continuous
 62
     2
100
AcDbMText
 10
-1221.035129959417
 20
-37.11162904385878
 30
0.0
 40
2.5
 41
0.0
 71
     5
 72
     1
  1
\A1; 51 
 73
     1
 44
1.0
  0
POINT
  5
CD34
330
CCF3
100
AcDbEntity
  8
DEFPOINTS
  6
Continuous
 62
     0
100
AcDbPoint
 10
-1246.535129959417
 20
-16.2657540438588
 30
0.0
  0
POINT
  5
CD35
330
CCF3
100
AcDbEntity
  8
DEFPOINTS
  6
Continuous
 62
     0
100
AcDbPoint
 10
-1195.535129959417
 20
-16.2657540438588
 30
0.0
  0
POINT
  5
CD36
330
CCF3
100
AcDbEntity
  8
DEFPOINTS
  6
Continuous
 62
     0
100
AcDbPoint
 10
-1195.535129959417
 20
-38.36162904385878
 30
0.0
  0
ENDBLK
  5
CCFE
330
CCF3
100
AcDbEntity
  8
0
100
AcDbBlockEnd
  0
BLOCK
  5
CD42
330
CD38
100
AcDbEntity
  8
0
100
AcDbBlockBegin
  2
*D72
 70
     1
 10
0.0
 20
0.0
 30
0.0
  3
*D72
  1

  0
LINE
  5
CD58
330
CD38
100
AcDbEntity
  8
1
  6
Continuous
 62
     4
370
    -2
100
AcDbLine
 10
-1325.835129959417
 20
-99.26575404385884
 30
0.0
 11
-1325.835129959417
 21
-241.0817863899119
 31
0.0
  0
LINE
  5
CD59
330
CD38
100
AcDbEntity
  8
1
  6
Continuous
 62
     4
370
    -2
100
AcDbLine
 10
-1046.235129959416
 20
-99.26575404385884
 30
0.0
 11
-1046.235129959416
 21
-241.0817863899119
 31
0.0
  0
LINE
  5
CD5A
330
CD38
100
AcDbEntity
  8
1
  6
Continuous
 62
     4
370
    -2
100
AcDbLine
 10
-1323.835129959417
 20
-240.0817863899119
 30
0.0
 11
-1187.285129959417
 21
-240.0817863899119
 31
0.0
  0
LINE
  5
CD5B
330
CD38
100
AcDbEntity
  8
1
  6
Continuous
 62
     4
370
    -2
100
AcDbLine
 10
-1048.235129959416
 20
-240.0817863899119
 30
0.0
 11
-1184.785129959416
 21
-240.0817863899119
 31
0.0
  0
INSERT
  5
CD5C
330
CD38
100
AcDbEntity
  8
1
  6
Continuous
 62
     4
370
    -2
100
AcDbBlockReference
  2
_OPEN
 10
-1325.835129959417
 20
-240.0817863899119
 30
0.0
 41
2.0
 42
2.0
 43
2.0
 50
180.0
  0
INSERT
  5
CD5D
330
CD38
100
AcDbEntity
  8
1
  6
Continuous
 62
     4
370
    -2
100
AcDbBlockReference
  2
_OPEN
 10
-1046.235129959416
 20
-240.0817863899119
 30
0.0
 41
2.0
 42
2.0
 43
2.0
  0
MTEXT
  5
CD5E
330
CD38
100
AcDbEntity
  8
1
  6
Continuous
 62
     2
100
AcDbMText
 10
-1186.035129959416
 20
-240.0817863899119
 30
0.0
 40
2.5
 41
0.0
 71
     5
 72
     1
  1
\A1;279.6
 11
0.0000000000000001
 21
1.0
 31
0.0
 73
     1
 44
1.0
  0
POINT
  5
CD5F
330
CD38
100
AcDbEntity
  8
DEFPOINTS
  6
Continuous
 62
     0
100
AcDbPoint
 10
-1325.835129959417
 20
-98.26575404385884
 30
0.0
  0
POINT
  5
CD60
330
CD38
100
AcDbEntity
  8
DEFPOINTS
  6
Continuous
 62
     0
100
AcDbPoint
 10
-1046.235129959416
 20
-98.26575404385884
 30
0.0
  0
POINT
  5
CD61
330
CD38
100
AcDbEntity
  8
DEFPOINTS
  6
Continuous
 62
     0
100
AcDbPoint
 10
-1046.235129959416
 20
-240.0817863899119
 30
0.0
  0
ENDBLK
  5
CD43
330
CD38
100
AcDbEntity
  8
0
100
AcDbBlockEnd
  0
ENDSEC
  0
SECTION
  2
ENTITIES
  0
MTEXT
  5
BF3
330
1E
100
AcDbEntity
  8
24
  6
Continuous
100
AcDbMText
 10
-1122.485879739977
 20
176.0077842646156
 30
0.0
 40
3.0
 41
0.0
 71
     1
 72
     1
  1
\A1;
 73
     1
 44
1.0
  0
MTEXT
  5
5C78
330
1E
100
AcDbEntity
  8
30
  6
Continuous
100
AcDbMText
 10
-1101.13821134667
 20
88.65804140987993
 30
0.0
 40
4.0
 41
0.0
 71
     9
 72
     1
  1

 73
     1
 44
1.0
  0
MTEXT
  5
6200
330
1E
100
AcDbEntity
  8
30
  6
Continuous
100
AcDbMText
 10
-1102.838969582035
 20
90.89784187598226
 30
0.0
 40
4.0
 41
0.0
 71
     9
 72
     1
  1

 73
     1
 44
1.0
  0
MTEXT
  5
7CA7
330
1E
100
AcDbEntity
  8
30
  6
Continuous
100
AcDbMText
 10
-1052.599328545124
 20
139.1817181806283
 30
0.0
 40
4.0
 41
0.0
 71
     9
 72
     1
  1
\A1;
 73
     1
 44
1.0
  0
MTEXT
  5
7CA9
330
1E
100
AcDbEntity
  8
30
  6
Continuous
100
AcDbMText
 10
-1045.859089195481
 20
136.4688200993745
 30
0.0
 40
4.0
 41
0.0
 71
     9
 72
     1
  1
\A1;
 73
     1
 44
1.0
  0
MTEXT
  5
89EA
330
1E
100
AcDbEntity
  8
19
  6
Continuous
100
AcDbMText
 10
368.2053819858291
 20
383.2917185336711
 30
0.0
 40
8.0
 41
187.9216436703345
 71
     1
 72
     5
  1
S630-CF 4P FC\PS630-NF 4P FC\PS630-GN 4P FC
  7
STANDARD1
 73
     1
 44
1.0
  0
MTEXT
  5
8D78
330
1E
100
AcDbEntity
  8
30
  6
Continuous
100
AcDbMText
 10
-1491.733190457684
 20
136.4688200993745
 30
0.0
 40
4.0
 41
0.0
 71
     9
 72
     1
  1
\A1;
 73
     1
 44
1.0
  0
LINE
  5
9579
330
1E
100
AcDbEntity
  8
10
  6
Continuous
100
AcDbLine
 10
386.9249350000001
 20
34.92816770952553
 30
0.0
 11
358.2583050000005
 21
45.24879270952548
 31
0.0
  0
LINE
  5
957A
330
1E
100
AcDbEntity
  8
16
100
AcDbLine
 10
511.0
 20
0.0
 30
0.0
 11
334.6000000000003
 21
0.0
 31
0.0
  0
LINE
  5
957B
330
1E
100
AcDbEntity
  8
10
  6
Continuous
100
AcDbLine
 10
386.2898700000001
 20
21.55253270952556
 30
0.0
 11
353.9224600000004
 21
33.2055177095255
 31
0.0
  0
LINE
  5
957C
330
1E
100
AcDbEntity
  8
10
  6
Continuous
100
AcDbLine
 10
379.8159049999997
 20
44.60856270952555
 30
0.0
 11
355.3530050000001
 21
53.41574770952558
 31
0.0
  0
LINE
  5
957D
330
1E
100
AcDbEntity
  8
10
  6
Continuous
100
AcDbLine
 10
370.9409700000001
 20
19.95748770952548
 30
0.0
 11
346.4780699999998
 21
28.76467270952544
 31
0.0
  0
DIMENSION
  5
9581
330
1E
100
AcDbEntity
  8
30
  6
Continuous
100
AcDbDimension
  2
*D21
 10
496.9999999999997
 20
-315.0512664941683
 30
0.0
 11
424.5
 21
-309.0512664941683
 31
0.0
 70
    32
  1
 <> 
 71
     5
 42
144.9999999999993
  3
STANDARD1
100
AcDbAlignedDimension
 13
352.0000000000004
 23
5.029512709525683
 33
0.0
 14
496.9999999999997
 24
-136.9704872904738
 34
0.0
100
AcDbRotatedDimension
  0
LINE
  5
9585
330
1E
100
AcDbEntity
  8
17
  6
DASHDOT
100
AcDbLine
 10
70.0
 20
-221.9704872904738
 30
0.0
 11
70.0
 21
-98.47048729047415
 31
0.0
  0
LINE
  5
9586
330
1E
100
AcDbEntity
  8
17
  6
DASHDOT
100
AcDbLine
 10
-69.99999999999954
 20
-221.9704872904738
 30
0.0
 11
-69.99999999999954
 21
-98.47048729047415
 31
0.0
  0
LINE
  5
9588
330
1E
100
AcDbEntity
  8
17
  6
DASHDOT
100
AcDbLine
 10
139.9935351126159
 20
-222.0474753083983
 30
0.0
 11
139.9935351126159
 21
-98.54747530839873
 31
0.0
  0
LINE
  5
9594
330
1E
100
AcDbEntity
  8
16
100
AcDbLine
 10
0.0
 20
-221.9704872904738
 30
0.0
 11
0.0
 21
231.0295127095251
 31
0.0
  0
DIMENSION
  5
9599
330
1E
100
AcDbEntity
  8
30
  6
Continuous
100
AcDbDimension
  2
*D22
 10
0.0000000000004516
 20
-247.0663622904738
 30
0.0
 11
-34.99999999999953
 21
-241.0663622904738
 31
0.0
 70
    32
  1
 <> 
 71
     5
 42
70.0
  3
STANDARD1
100
AcDbAlignedDimension
 13
-69.99999999999954
 23
-221.9704872904738
 33
0.0
 14
0.0000000000004547
 24
-196.9704872904739
 34
0.0
100
AcDbRotatedDimension
  0
DIMENSION
  5
959A
330
1E
100
AcDbEntity
  8
30
  6
Continuous
100
AcDbDimension
  2
*D23
 10
70.0
 20
-247.0663622904738
 30
0.0
 11
35.0
 21
-241.0663622904738
 31
0.0
 70
    32
  1
 <> 
 71
     5
 42
70.0
  3
STANDARD1
100
AcDbAlignedDimension
 13
0.0
 23
-211.970487290474
 33
0.0
 14
70.0
 24
-221.9704872904738
 34
0.0
100
AcDbRotatedDimension
  0
DIMENSION
  5
959B
330
1E
100
AcDbEntity
  8
30
  6
Continuous
100
AcDbDimension
  2
*D24
 10
139.9935351126159
 20
-247.1433503083983
 30
0.0
 11
104.9967675563079
 21
-241.1433503083983
 31
0.0
 70
    32
  1
 <> 
 71
     5
 42
69.99353511261592
  3
STANDARD1
100
AcDbAlignedDimension
 13
70.0
 23
-221.9704872904738
 33
0.0
 14
139.9935351126159
 24
-222.0474753083983
 34
0.0
100
AcDbRotatedDimension
  0
DIMENSION
  5
959C
330
1E
100
AcDbEntity
  8
30
  6
Continuous
100
AcDbDimension
  2
*D25
 10
0.0000000000004498
 20
-277.0663622904736
 30
0.0
 11
-52.49999999999953
 21
-271.0663622904736
 31
0.0
 70
    32
  1
 <> 
 71
     5
 42
104.9999999999997
  3
STANDARD1
100
AcDbAlignedDimension
 13
-104.9999999999994
 23
-136.9704872904738
 33
0.0
 14
0.0000000000004547
 24
-196.9704872904739
 34
0.0
100
AcDbRotatedDimension
  0
DIMENSION
  5
959D
330
1E
100
AcDbEntity
  8
30
  6
Continuous
100
AcDbDimension
  2
*D26
 10
174.9935351126158
 20
-277.1433503083981
 30
0.0
 11
87.49676755630817
 21
-271.1433503083981
 31
0.0
 70
    32
  1
 <> 
 71
     5
 42
174.9935351126154
  3
STANDARD1
100
AcDbAlignedDimension
 13
0.0000000000004547
 23
-196.9704872904739
 33
0.0
 14
174.9935351126158
 24
-137.0474753083985
 34
0.0
100
AcDbRotatedDimension
  0
DIMENSION
  5
959E
330
1E
100
AcDbEntity
  8
30
  6
Continuous
100
AcDbDimension
  2
*D27
 10
174.9935351126158
 20
-307.143350308398
 30
0.0
 11
34.99676755630817
 21
-301.1433503083981
 31
0.0
 70
    32
  1
 <> 
 71
     5
 42
279.9935351126153
  3
STANDARD1
100
AcDbAlignedDimension
 13
-104.9999999999994
 23
-136.9704872904738
 33
0.0
 14
174.9935351126158
 24
-137.0474753083985
 34
0.0
100
AcDbRotatedDimension
  0
DIMENSION
  5
95A0
330
1E
100
AcDbEntity
  8
30
  6
Continuous
100
AcDbDimension
  2
*D28
 10
198.428729362358
 20
-197.0474753083983
 30
0.0
 11
198.4287293623583
 21
-207.9525246916014
 31
0.0
 70
   160
  1
 <> 
 71
     0
 72
     0
 41
0.0
 42
15.00000000000011
  3
STANDARD1
100
AcDbAlignedDimension
 13
164.9935351126155
 23
-212.0474753083985
 33
0.0
 14
144.9935351126155
 24
-197.0474753083983
 34
0.0
 50
90.0
100
AcDbRotatedDimension
  0
DIMENSION
  5
95A1
330
1E
100
AcDbEntity
  8
30
  6
Continuous
100
AcDbDimension
  2
*D29
 10
271.4989300000004
 20
-315.3553217315689
 30
0.0
 11
311.7494650000003
 21
-309.3553217315686
 31
0.0
 70
    33
  1
 <> 
 71
     5
 42
80.50106999999997
  3
STANDARD1
100
AcDbAlignedDimension
 13
352.0000000000004
 23
5.029512709525683
 33
0.0
 14
271.4989300000004
 24
5.029512709525683
 34
0.0
  0
DIMENSION
  5
95B0
330
1E
100
AcDbEntity
  8
30
  6
Continuous
100
AcDbDimension
  2
*D30
 10
-104.9999999999994
 20
251.029512709525
 30
0.0
 11
-110.9999999999994
 21
196.0295127095251
 31
0.0
 70
    32
  1
 <> 
 71
     0
 72
     0
 41
0.0
 42
109.9999999999996
  3
STANDARD1
100
AcDbAlignedDimension
 13
-104.9999999999994
 23
141.0295127095253
 33
0.0
 14
-41.99999999999977
 24
251.029512709525
 34
0.0
 50
90.0
100
AcDbRotatedDimension
  0
LINE
  5
963A
330
1E
100
AcDbEntity
  8
24
  6
CONTINOUS
100
AcDbLine
 10
35.2000000000005
 20
137.2795127095249
 30
0.0
 11
35.2000000000005
 21
114.7795127095254
 31
0.0
  0
LINE
  5
963B
330
1E
100
AcDbEntity
  8
17
  6
DASHDOT
100
AcDbLine
 10
70.0
 20
231.0295127095251
 30
0.0
 11
70.0
 21
107.529512709525
 31
0.0
  0
LINE
  5
963D
330
1E
100
AcDbEntity
  8
17
  6
DASHDOT
100
AcDbLine
 10
-69.99999999999954
 20
231.0295127095251
 30
0.0
 11
-69.99999999999954
 21
107.529512709525
 31
0.0
  0
LINE
  5
963F
330
1E
100
AcDbEntity
  8
17
  6
DASHDOT
100
AcDbLine
 10
139.9935351126159
 20
230.9525246916005
 30
0.0
 11
139.9935351126159
 21
107.4525246916004
 31
0.0
  0
LINE
  5
9640
330
1E
100
AcDbEntity
  8
24
  6
CONTINOUS
100
AcDbLine
 10
-34.79999999999972
 20
137.2795127095249
 30
0.0
 11
-34.79999999999972
 21
114.7795127095254
 31
0.0
  0
CIRCLE
  5
9642
330
1E
100
AcDbEntity
  8
24
  6
CONTINOUS
100
AcDbCircle
 10
35.2000000000005
 20
126.0295127095252
 30
0.0
 40
8.249999999999976
  0
CIRCLE
  5
9646
330
1E
100
AcDbEntity
  8
24
  6
CONTINOUS
100
AcDbCircle
 10
-34.79999999999972
 20
126.0295127095252
 30
0.0
 40
8.249999999999976
  0
LINE
  5
964F
330
1E
100
AcDbEntity
  8
10
  6
Continuous
100
AcDbLine
 10
175.0
 20
-46.5
 30
0.0
 11
-104.9999999999994
 21
-46.5
 31
0.0
  0
LINE
  5
9650
330
1E
100
AcDbEntity
  8
16
100
AcDbLine
 10
184.9935351126155
 20
0.0
 30
0.0
 11
-114.9999999999995
 21
0.0
 31
0.0
  0
LINE
  5
9651
330
1E
100
AcDbEntity
  8
10
  6
Continuous
100
AcDbLine
 10
174.9935351126158
 20
115.9525246916007
 30
0.0
 11
-104.9999999999994
 21
116.0295127095252
 31
0.0
  0
LINE
  5
9652
330
1E
100
AcDbEntity
  8
10
  6
Continuous
100
AcDbLine
 10
-104.9999999999994
 20
-106.9704872904742
 30
0.0
 11
174.9935351126158
 21
-107.0474753083987
 31
0.0
  0
LINE
  5
9654
330
1E
100
AcDbEntity
  8
10
  6
Continuous
100
AcDbLine
 10
174.9935351126158
 20
55.5
 30
0.0
 11
-104.9999999999994
 21
55.5
 31
0.0
  0
DIMENSION
  5
9656
330
1E
100
AcDbEntity
  8
30
  6
Continuous
100
AcDbDimension
  2
*D1
 10
198.4287293623583
 20
-165.0474753083985
 30
0.0
 11
192.4287293623583
 21
-181.0474753083983
 31
0.0
 70
    32
  1
 <> 
 71
     0
 72
     0
 41
0.0
 42
31.99999999999988
  3
STANDARD1
100
AcDbAlignedDimension
 13
144.9935351126155
 23
-197.0474753083983
 33
0.0
 14
144.9935351126155
 24
-165.0474753083985
 34
0.0
 50
90.0
100
AcDbRotatedDimension
  0
DIMENSION
  5
9657
330
1E
100
AcDbEntity
  8
30
  6
Continuous
100
AcDbDimension
  2
*D2
 10
198.428729362358
 20
-157.0474753083986
 30
0.0
 11
193.0
 21
-163.0
 31
0.0
 70
   160
  1
 <> 
 71
     0
 72
     0
 41
0.0
 42
7.999999999999912
  3
STANDARD1
100
AcDbAlignedDimension
 13
144.9935351126155
 23
-165.0474753083985
 33
0.0
 14
144.9935351126155
 24
-157.0474753083986
 34
0.0
 50
90.0
100
AcDbRotatedDimension
1001
ACAD
1000
DSTYLE
1002
{
1070
   172
1070
     1
1070
   279
1070
     2
1002
}
  0
DIMENSION
  5
9658
330
1E
100
AcDbEntity
  8
30
  6
Continuous
100
AcDbDimension
  2
*D3
 10
198.4287293623583
 20
-132.0474753083987
 30
0.0
 11
192.4287293623583
 21
-144.5474753083986
 31
0.0
 70
    32
  1
 <> 
 71
     0
 72
     0
 41
0.0
 42
24.99999999999988
  3
STANDARD1
100
AcDbAlignedDimension
 13
144.9935351126155
 23
-157.0474753083986
 33
0.0
 14
179.9935351126155
 24
-132.0474753083987
 34
0.0
 50
90.0
100
AcDbRotatedDimension
  0
DIMENSION
  5
9659
330
1E
100
AcDbEntity
  8
30
  6
Continuous
100
AcDbDimension
  2
*D4
 10
-143.5336879211943
 20
-0.0449089858315539
 30
0.0
 11
-149.5336879211943
 21
27.70380785288465
 31
0.0
 70
    32
  1
 <> 
 71
     0
 72
     0
 41
0.0
 42
55.49743367743246
  3
STANDARD1
100
AcDbAlignedDimension
 13
-104.9999999999994
 23
55.45252469160089
 33
0.0
 14
-104.9999999999994
 24
-0.0449089858315648
 34
0.0
 50
90.0
100
AcDbRotatedDimension
  0
DIMENSION
  5
965A
330
1E
100
AcDbEntity
  8
30
  6
Continuous
100
AcDbDimension
  2
*D5
 10
-143.5336879211943
 20
-46.5474753083988
 30
0.0
 11
-149.5336879211943
 21
-23.29619214711519
 31
0.0
 70
    32
  1
 <> 
 71
     0
 72
     0
 41
0.0
 42
46.50256632256723
  3
STANDARD1
100
AcDbAlignedDimension
 13
-104.9999999999994
 23
-0.0449089858315648
 33
0.0
 14
-104.9999999999994
 24
-46.5474753083988
 34
0.0
 50
90.0
100
AcDbRotatedDimension
  0
DIMENSION
  5
965B
330
1E
100
AcDbEntity
  8
30
  6
Continuous
100
AcDbDimension
  2
*D6
 10
-123.4351942497418
 20
-44.97048729047425
 30
0.0
 11
-129.4351942497418
 21
0.0295127095255919
 31
0.0
 70
    32
  1
 <> 
 71
     0
 72
     0
 41
0.0
 42
89.99999999999973
  3
STANDARD1
100
AcDbAlignedDimension
 13
-15.20646488738384
 23
45.02951270952544
 33
0.0
 14
-15.20646488738384
 24
-44.97048729047429
 34
0.0
 50
90.0
100
AcDbRotatedDimension
  0
LINE
  5
965C
330
1E
100
AcDbEntity
  8
10
  6
Continuous
100
AcDbLine
 10
-25.29999999999972
 20
45.02951270952542
 30
0.0
 11
-25.29999999999972
 21
-44.97048729047434
 31
0.0
  0
LINE
  5
965D
330
1E
100
AcDbEntity
  8
10
  6
Continuous
100
AcDbLine
 10
25.70000000000027
 20
45.02951270952542
 30
0.0
 11
25.70000000000027
 21
-44.97048729047434
 31
0.0
  0
DIMENSION
  5
9662
330
1E
100
AcDbEntity
  8
30
  6
Continuous
100
AcDbDimension
  2
*D7
 10
25.70000000000003
 20
-72.06636229047417
 30
0.0
 11
0.2000000000000458
 21
-66.06636229047417
 31
0.0
 70
    32
  1
 <> 
 71
     5
 42
50.99999999999997
  3
STANDARD1
100
AcDbAlignedDimension
 13
-25.29999999999994
 23
-49.97048729047421
 33
0.0
 14
25.70000000000003
 24
-49.97048729047421
 34
0.0
100
AcDbRotatedDimension
  0
LINE
  5
9663
330
1E
100
AcDbEntity
  8
24
  6
CONTINOUS
100
AcDbLine
 10
-34.79999999999972
 20
-105.7204872904742
 30
0.0
 11
-34.79999999999972
 21
-128.2204872904741
 31
0.0
  0
LINE
  5
9667
330
1E
100
AcDbEntity
  8
17
  6
DASHDOT
100
AcDbLine
 10
-79.29999999999973
 20
-164.9704872904738
 30
0.0
 11
-60.29999999999951
 21
-164.9704872904738
 31
0.0
  0
LINE
  5
9668
330
1E
100
AcDbEntity
  8
17
  6
DASHDOT
100
AcDbLine
 10
-79.29999999999973
 20
-196.9704872904739
 30
0.0
 11
-60.29999999999951
 21
-196.9704872904739
 31
0.0
  0
LINE
  5
966A
330
1E
100
AcDbEntity
  8
17
  6
DASHDOT
100
AcDbLine
 10
-79.49999999999976
 20
-156.9704872904738
 30
0.0
 11
-60.49999999999954
 21
-156.9704872904738
 31
0.0
  0
CIRCLE
  5
966C
330
1E
100
AcDbEntity
  8
10
  6
Continuous
 62
     2
100
AcDbCircle
 10
69.7999999999995
 20
-196.9704872904739
 30
0.0
 40
6.499999999999982
210
0.0
220
0.0
230
-1.0
  0
LINE
  5
9671
330
1E
100
AcDbEntity
  8
17
  6
DASHDOT
100
AcDbLine
 10
-9.499999999999772
 20
-196.9704872904739
 30
0.0
 11
9.500000000000452
 21
-196.9704872904739
 31
0.0
  0
CIRCLE
  5
9672
330
1E
100
AcDbEntity
  8
10
  6
Continuous
 62
     2
100
AcDbCircle
 10
0.0
 20
-196.9704872904739
 30
0.0
 40
6.499999999999982
210
0.0
220
0.0
230
-1.0
  0
LINE
  5
9673
330
1E
100
AcDbEntity
  8
17
  6
DASHDOT
100
AcDbLine
 10
-9.499999999999772
 20
-164.9704872904738
 30
0.0
 11
9.500000000000452
 21
-164.9704872904738
 31
0.0
  0
LINE
  5
9674
330
1E
100
AcDbEntity
  8
17
  6
DASHDOT
100
AcDbLine
 10
-9.499999999999772
 20
-156.9704872904738
 30
0.0
 11
9.500000000000452
 21
-156.9704872904738
 31
0.0
  0
LINE
  5
9679
330
1E
100
AcDbEntity
  8
24
  6
CONTINOUS
100
AcDbLine
 10
-46.04999999999972
 20
-116.9704872904741
 30
0.0
 11
-23.54999999999972
 21
-116.9704872904741
 31
0.0
  0
CIRCLE
  5
967A
330
1E
100
AcDbEntity
  8
24
  6
CONTINOUS
100
AcDbCircle
 10
-34.79999999999972
 20
-116.9704872904741
 30
0.0
 40
8.249999999999976
  0
LINE
  5
967B
330
1E
100
AcDbEntity
  8
24
  6
CONTINOUS
100
AcDbLine
 10
35.2000000000005
 20
-105.7204872904742
 30
0.0
 11
35.2000000000005
 21
-128.2204872904741
 31
0.0
  0
LINE
  5
9680
330
1E
100
AcDbEntity
  8
17
  6
DASHDOT
100
AcDbLine
 10
60.5
 20
-196.9704872904739
 30
0.0
 11
79.5
 21
-196.9704872904739
 31
0.0
  0
CIRCLE
  5
9681
330
1E
100
AcDbEntity
  8
10
  6
Continuous
 62
     2
100
AcDbCircle
 10
-70.0
 20
-196.9704872904739
 30
0.0
 40
6.499999999999982
210
0.0
220
0.0
230
-1.0
  0
LINE
  5
9682
330
1E
100
AcDbEntity
  8
17
  6
DASHDOT
100
AcDbLine
 10
60.5
 20
-164.9704872904738
 30
0.0
 11
79.5
 21
-164.9704872904738
 31
0.0
  0
LINE
  5
9683
330
1E
100
AcDbEntity
  8
17
  6
DASHDOT
100
AcDbLine
 10
60.5
 20
-156.9704872904738
 30
0.0
 11
79.5
 21
-156.9704872904738
 31
0.0
  0
LINE
  5
9689
330
1E
100
AcDbEntity
  8
17
  6
DASHDOT
100
AcDbLine
 10
130.4935351126159
 20
-197.0474753083983
 30
0.0
 11
149.4935351126159
 21
-197.0474753083983
 31
0.0
  0
CIRCLE
  5
968A
330
1E
100
AcDbEntity
  8
10
  6
Continuous
 62
     2
100
AcDbCircle
 10
-139.9935351126159
 20
-197.0474753083983
 30
0.0
 40
6.499999999999982
210
0.0
220
0.0
230
-1.0
  0
LINE
  5
968B
330
1E
100
AcDbEntity
  8
17
  6
DASHDOT
100
AcDbLine
 10
130.4935351126159
 20
-165.0474753083985
 30
0.0
 11
149.4935351126159
 21
-165.0474753083985
 31
0.0
  0
LINE
  5
968C
330
1E
100
AcDbEntity
  8
17
  6
DASHDOT
100
AcDbLine
 10
130.4935351126159
 20
-157.0474753083986
 30
0.0
 11
149.4935351126159
 21
-157.0474753083986
 31
0.0
  0
LINE
  5
9691
330
1E
100
AcDbEntity
  8
24
  6
CONTINOUS
100
AcDbLine
 10
23.95000000000027
 20
-116.9704872904741
 30
0.0
 11
46.45000000000027
 21
-116.9704872904741
 31
0.0
  0
CIRCLE
  5
9692
330
1E
100
AcDbEntity
  8
24
  6
CONTINOUS
100
AcDbCircle
 10
35.2000000000005
 20
-116.9704872904741
 30
0.0
 40
8.249999999999976
  0
LINE
  5
9693
330
1E
100
AcDbEntity
  8
10
  6
Continuous
100
AcDbLine
 10
25.70000000000027
 20
44.57632770952539
 30
0.0
 11
-25.29999999999972
 21
44.57632770952539
 31
0.0
  0
LINE
  5
96A5
330
1E
100
AcDbEntity
  8
10
  6
Continuous
100
AcDbLine
 10
142.5480651126155
 20
81.26782469160097
 30
0.0
 11
144.1497851126159
 21
82.86954469160084
 31
0.0
  0
LINE
  5
96A6
330
1E
100
AcDbEntity
  8
10
  6
Continuous
100
AcDbLine
 10
135.8372851126157
 20
82.1142496916009
 30
0.0
 11
137.0247851126155
 21
83.30174969160081
 31
0.0
  0
LINE
  5
96A7
330
1E
100
AcDbEntity
  8
10
  6
Continuous
100
AcDbLine
 10
142.0294351126158
 20
82.0087246916008
 30
0.0
 11
142.8820951126158
 21
82.86138969160075
 31
0.0
  0
LINE
  5
96A8
330
1E
100
AcDbEntity
  8
10
  6
Continuous
100
AcDbLine
 10
135.8372851126157
 20
81.69440469160068
 30
0.0
 11
137.0247851126155
 21
82.88190469160079
 31
0.0
  0
LINE
  5
96A9
330
1E
100
AcDbEntity
  8
10
  6
Continuous
100
AcDbLine
 10
142.2023101126158
 20
81.76175969160087
 30
0.0
 11
144.1497851126159
 21
83.70923469160068
 31
0.0
  0
LINE
  5
96AA
330
1E
100
AcDbEntity
  8
10
  6
Continuous
100
AcDbLine
 10
141.8565551126159
 20
82.2556946916007
 30
0.0
 11
142.7092201126158
 21
83.1083546916008
 31
0.0
  0
LINE
  5
96AB
330
1E
100
AcDbEntity
  8
10
  6
Continuous
100
AcDbLine
 10
142.375185112616
 20
81.51478969160056
 30
0.0
 11
144.1497851126159
 21
83.28938969160081
 31
0.0
  0
CIRCLE
  5
96AC
330
1E
100
AcDbEntity
  8
10
  6
Continuous
100
AcDbCircle
 10
139.9935351126159
 20
85.95252469160081
 30
0.0
 40
9.499999999999976
  0
LINE
  5
96AD
330
1E
100
AcDbEntity
  8
10
  6
Continuous
100
AcDbLine
 10
136.6769751126159
 20
80.01502469160092
 30
0.0
 11
137.0247851126155
 21
80.3628346916008
 31
0.0
  0
LINE
  5
96AE
330
1E
100
AcDbEntity
  8
10
  6
Continuous
100
AcDbLine
 10
135.8372851126157
 20
80.43486969160069
 30
0.0
 11
137.0247851126155
 21
81.62236969160078
 31
0.0
  0
LINE
  5
96AF
330
1E
100
AcDbEntity
  8
10
  6
Continuous
100
AcDbLine
 10
136.2571301126157
 20
80.01502469160092
 30
0.0
 11
137.0247851126155
 21
80.78267969160087
 31
0.0
  0
LINE
  5
96B0
330
1E
100
AcDbEntity
  8
10
  6
Continuous
100
AcDbLine
 10
135.8372851126157
 20
80.85471469160067
 30
0.0
 11
137.0247851126155
 21
82.04221469160065
 31
0.0
  0
LINE
  5
96B1
330
1E
100
AcDbEntity
  8
10
  6
Continuous
100
AcDbLine
 10
135.8372851126157
 20
81.27455969160072
 30
0.0
 11
137.0247851126155
 21
82.46205969160072
 31
0.0
  0
LINE
  5
96B2
330
1E
100
AcDbEntity
  8
10
  6
Continuous
100
AcDbLine
 10
135.8372851126157
 20
80.01502469160092
 30
0.0
 11
137.0247851126155
 21
81.20252469160083
 31
0.0
  0
LINE
  5
96B3
330
1E
100
AcDbEntity
  8
10
  6
Continuous
100
AcDbLine
 10
143.394490112616
 20
80.01502469160092
 30
0.0
 11
144.1497851126159
 21
80.77032469160078
 31
0.0
  0
LINE
  5
96B4
330
1E
100
AcDbEntity
  8
10
  6
Continuous
100
AcDbLine
 10
142.7209401126158
 20
81.02085469160085
 30
0.0
 11
144.1497851126159
 21
82.44969969160079
 31
0.0
  0
LINE
  5
96B5
330
1E
100
AcDbEntity
  8
10
  6
Continuous
100
AcDbLine
 10
143.8143351126159
 20
80.01502469160092
 30
0.0
 11
144.1497851126159
 21
80.35047969160089
 31
0.0
  0
LINE
  5
96B6
330
1E
100
AcDbEntity
  8
10
  6
Continuous
100
AcDbLine
 10
143.2395751126159
 20
80.2799546916008
 30
0.0
 11
144.1497851126159
 21
81.19016469160065
 31
0.0
  0
LINE
  5
96B7
330
1E
100
AcDbEntity
  8
10
  6
Continuous
100
AcDbLine
 10
142.8938201126159
 20
80.77388969160081
 30
0.0
 11
144.1497851126159
 21
82.02985469160076
 31
0.0
  0
LINE
  5
96B8
330
1E
100
AcDbEntity
  8
10
  6
Continuous
100
AcDbLine
 10
143.0666951126155
 20
80.52691969160084
 30
0.0
 11
144.1497851126159
 21
81.61000969160083
 31
0.0
  0
LINE
  5
96B9
330
1E
100
AcDbEntity
  8
10
  6
Continuous
100
AcDbLine
 10
138.0532551126161
 20
87.68897469160078
 30
0.0
 11
138.9059201126155
 21
88.54163969160074
 31
0.0
  0
LINE
  5
96BA
330
1E
100
AcDbEntity
  8
10
  6
Continuous
100
AcDbLine
 10
138.5718901126157
 20
86.94807469160084
 30
0.0
 11
139.4245501126158
 21
87.80073969160083
 31
0.0
  0
LINE
  5
96BB
330
1E
100
AcDbEntity
  8
10
  6
Continuous
100
AcDbLine
 10
138.3990101126159
 20
87.19503969160067
 30
0.0
 11
139.2516751126158
 21
88.04770469160073
 31
0.0
  0
LINE
  5
96BC
330
1E
100
AcDbEntity
  8
10
  6
Continuous
100
AcDbLine
 10
138.2261351126157
 20
87.44200969160081
 30
0.0
 11
139.0788001126161
 21
88.2946746916007
 31
0.0
  0
LINE
  5
96BD
330
1E
100
AcDbEntity
  8
10
  6
Continuous
100
AcDbLine
 10
135.8372851126157
 20
86.31269469160073
 30
0.0
 11
137.0247851126155
 21
87.50019469160084
 31
0.0
  0
LINE
  5
96BE
330
1E
100
AcDbEntity
  8
10
  6
Continuous
100
AcDbLine
 10
135.8372851126157
 20
82.95393969160093
 30
0.0
 11
137.0247851126155
 21
84.14143969160081
 31
0.0
  0
LINE
  5
96BF
330
1E
100
AcDbEntity
  8
10
  6
Continuous
100
AcDbLine
 10
135.8372851126157
 20
83.37378469160087
 30
0.0
 11
137.0247851126155
 21
84.56128469160075
 31
0.0
  0
LINE
  5
96C0
330
1E
100
AcDbEntity
  8
10
  6
Continuous
100
AcDbLine
 10
135.8372851126157
 20
87.15238469160082
 30
0.0
 11
137.0247851126155
 21
88.33988469160093
 31
0.0
  0
LINE
  5
96C1
330
1E
100
AcDbEntity
  8
10
  6
Continuous
100
AcDbLine
 10
135.8372851126157
 20
85.89284969160081
 30
0.0
 11
137.0247851126155
 21
87.08034969160079
 31
0.0
  0
LINE
  5
96C2
330
1E
100
AcDbEntity
  8
10
  6
Continuous
100
AcDbLine
 10
135.8372851126157
 20
84.2134746916008
 30
0.0
 11
137.0247851126155
 21
85.40097469160071
 31
0.0
  0
LINE
  5
96C3
330
1E
100
AcDbEntity
  8
10
  6
Continuous
100
AcDbLine
 10
135.8372851126157
 20
87.57222969160077
 30
0.0
 11
137.0247851126155
 21
88.75972969160088
 31
0.0
  0
LINE
  5
96C4
330
1E
100
AcDbEntity
  8
10
  6
Continuous
100
AcDbLine
 10
135.8372851126157
 20
83.79362969160075
 30
0.0
 11
137.0247851126155
 21
84.98112969160075
 31
0.0
  0
LINE
  5
96C5
330
1E
100
AcDbEntity
  8
10
  6
Continuous
100
AcDbLine
 10
135.8372851126157
 20
85.05315969160072
 30
0.0
 11
137.0247851126155
 21
86.24065969160083
 31
0.0
  0
LINE
  5
96C6
330
1E
100
AcDbEntity
  8
10
  6
Continuous
100
AcDbLine
 10
135.8372851126157
 20
90.09129969160069
 30
0.0
 11
137.0042701126157
 21
91.25828469160081
 31
0.0
  0
LINE
  5
96C7
330
1E
100
AcDbEntity
  8
10
  6
Continuous
100
AcDbLine
 10
135.8372851126157
 20
88.41191969160069
 30
0.0
 11
137.6957801126159
 21
90.27041469160066
 31
0.0
  0
LINE
  5
96C8
330
1E
100
AcDbEntity
  8
10
  6
Continuous
100
AcDbLine
 10
135.8372851126157
 20
86.73253969160064
 30
0.0
 11
137.0247851126155
 21
87.92003969160054
 31
0.0
  0
LINE
  5
96C9
330
1E
100
AcDbEntity
  8
10
  6
Continuous
100
AcDbLine
 10
135.8372851126157
 20
91.35082969160079
 30
0.0
 11
136.3764801126158
 21
91.89002469160085
 31
0.0
  0
LINE
  5
96CA
330
1E
100
AcDbEntity
  8
10
  6
Continuous
100
AcDbLine
 10
137.1888701126158
 20
88.92381469160078
 30
0.0
 11
138.0415351126155
 21
89.77647969160086
 31
0.0
  0
LINE
  5
96CB
330
1E
100
AcDbEntity
  8
10
  6
Continuous
100
AcDbLine
 10
135.8372851126157
 20
89.67145469160067
 30
0.0
 11
137.1771501126155
 21
91.01131469160074
 31
0.0
  0
LINE
  5
96CC
330
1E
100
AcDbEntity
  8
10
  6
Continuous
100
AcDbLine
 10
135.8372851126157
 20
88.83176469160078
 30
0.0
 11
137.5229051126159
 21
90.51737969160068
 31
0.0
  0
LINE
  5
96CD
330
1E
100
AcDbEntity
  8
10
  6
Continuous
100
AcDbLine
 10
135.8372851126157
 20
84.63331469160079
 30
0.0
 11
137.0247851126155
 21
85.8208146916009
 31
0.0
  0
LINE
  5
96CE
330
1E
100
AcDbEntity
  8
10
  6
Continuous
100
AcDbLine
 10
135.8372851126157
 20
91.77067469160069
 30
0.0
 11
135.9566351126159
 21
91.89002469160085
 31
0.0
  0
LINE
  5
96CF
330
1E
100
AcDbEntity
  8
10
  6
Continuous
100
AcDbLine
 10
137.7075051126157
 20
88.18290969160086
 30
0.0
 11
138.5601651126155
 21
89.03557469160093
 31
0.0
  0
LINE
  5
96D0
330
1E
100
AcDbEntity
  8
10
  6
Continuous
100
AcDbLine
 10
135.8372851126157
 20
89.25160969160074
 30
0.0
 11
137.350025112616
 21
90.7643496916007
 31
0.0
  0
LINE
  5
96D1
330
1E
100
AcDbEntity
  8
10
  6
Continuous
100
AcDbLine
 10
135.8372851126157
 20
90.51114469160095
 30
0.0
 11
136.8313951126158
 21
91.50524969160088
 31
0.0
  0
LINE
  5
96D2
330
1E
100
AcDbEntity
  8
10
  6
Continuous
100
AcDbLine
 10
137.3617501126159
 20
88.67684469160087
 30
0.0
 11
138.2144101126159
 21
89.52950969160083
 31
0.0
  0
LINE
  5
96D3
330
1E
100
AcDbEntity
  8
10
  6
Continuous
100
AcDbLine
 10
135.8372851126157
 20
87.99207469160084
 30
0.0
 11
137.868660112616
 21
90.02344469160069
 31
0.0
  0
LINE
  5
96D4
330
1E
100
AcDbEntity
  8
10
  6
Continuous
100
AcDbLine
 10
137.5346251126159
 20
88.42987969160075
 30
0.0
 11
138.387290112616
 21
89.28254469160078
 31
0.0
  0
LINE
  5
96D5
330
1E
100
AcDbEntity
  8
10
  6
Continuous
100
AcDbLine
 10
135.8372851126157
 20
85.47300469160076
 30
0.0
 11
137.0247851126155
 21
86.66050469160074
 31
0.0
  0
LINE
  5
96D6
330
1E
100
AcDbEntity
  8
10
  6
Continuous
100
AcDbLine
 10
137.8803801126159
 20
87.93594469160067
 30
0.0
 11
138.7330451126157
 21
88.78860969160067
 31
0.0
  0
LINE
  5
96D7
330
1E
100
AcDbEntity
  8
10
  6
Continuous
100
AcDbLine
 10
135.8372851126157
 20
82.53409469160086
 30
0.0
 11
137.0247851126155
 21
83.72159469160086
 31
0.0
  0
LINE
  5
96D8
330
1E
100
AcDbEntity
  8
10
  6
Continuous
100
AcDbLine
 10
135.8372851126157
 20
90.9309846916008
 30
0.0
 11
136.6585151126159
 21
91.75221969160087
 31
0.0
  0
LINE
  5
96D9
330
1E
100
AcDbEntity
  8
10
  6
Continuous
100
AcDbLine
 10
141.683680112616
 20
82.50265969160075
 30
0.0
 11
142.536340112616
 21
83.3553246916009
 31
0.0
  0
LINE
  5
96DA
330
1E
100
AcDbEntity
  8
10
  6
Continuous
100
AcDbLine
 10
140.4735401126158
 20
84.23143469160065
 30
0.0
 11
141.3262001126158
 21
85.08409469160085
 31
0.0
  0
LINE
  5
96DB
330
1E
100
AcDbEntity
  8
10
  6
Continuous
100
AcDbLine
 10
142.9622851126159
 20
83.36142469160069
 30
0.0
 11
144.1497851126159
 21
84.54892469160069
 31
0.0
  0
LINE
  5
96DC
330
1E
100
AcDbEntity
  8
10
  6
Continuous
100
AcDbLine
 10
142.9622851126159
 20
89.65909469160072
 30
0.0
 11
144.1497851126159
 21
90.84659469160085
 31
0.0
  0
LINE
  5
96DD
330
1E
100
AcDbEntity
  8
10
  6
Continuous
100
AcDbLine
 10
142.9622851126159
 20
87.14002469160082
 30
0.0
 11
144.1497851126159
 21
88.32752469160082
 31
0.0
  0
LINE
  5
96DE
330
1E
100
AcDbEntity
  8
10
  6
Continuous
100
AcDbLine
 10
142.9622851126159
 20
82.94157969160075
 30
0.0
 11
144.1497851126159
 21
84.12907969160073
 31
0.0
  0
LINE
  5
96DF
330
1E
100
AcDbEntity
  8
10
  6
Continuous
100
AcDbLine
 10
140.9921701126158
 20
83.49052969160073
 30
0.0
 11
141.844835112616
 21
84.34319469160072
 31
0.0
  0
LINE
  5
96E0
330
1E
100
AcDbEntity
  8
10
  6
Continuous
100
AcDbLine
 10
139.2634001126159
 20
85.96020469160079
 30
0.0
 11
140.1160601126159
 21
86.81286969160074
 31
0.0
  0
LINE
  5
96E1
330
1E
100
AcDbEntity
  8
10
  6
Continuous
100
AcDbLine
 10
142.9622851126159
 20
84.62095969160094
 30
0.0
 11
144.1497851126159
 21
85.8084596916008
 31
0.0
  0
LINE
  5
96E2
330
1E
100
AcDbEntity
  8
10
  6
Continuous
100
AcDbLine
 10
140.646415112616
 20
83.98446469160074
 30
0.0
 11
141.4990801126158
 21
84.83712969160078
 31
0.0
  0
LINE
  5
96E3
330
1E
100
AcDbEntity
  8
10
  6
Continuous
100
AcDbLine
 10
142.9622851126159
 20
85.46064969160083
 30
0.0
 11
144.1497851126159
 21
86.64814969160065
 31
0.0
  0
LINE
  5
96E4
330
1E
100
AcDbEntity
  8
10
  6
Continuous
100
AcDbLine
 10
140.3006601126157
 20
84.4783996916008
 30
0.0
 11
141.1533251126159
 21
85.33106469160081
 31
0.0
  0
LINE
  5
96E5
330
1E
100
AcDbEntity
  8
10
  6
Continuous
100
AcDbLine
 10
142.9622851126159
 20
89.23924969160076
 30
0.0
 11
144.1497851126159
 21
90.42674969160087
 31
0.0
  0
LINE
  5
96E6
330
1E
100
AcDbEntity
  8
10
  6
Continuous
100
AcDbLine
 10
139.0905201126156
 20
86.20716969160083
 30
0.0
 11
139.9431851126159
 21
87.05983469160079
 31
0.0
  0
LINE
  5
96E7
330
1E
100
AcDbEntity
  8
10
  6
Continuous
100
AcDbLine
 10
141.1650451126158
 20
83.24356469160079
 30
0.0
 11
142.0177101126158
 21
84.09622469160067
 31
0.0
  0
LINE
  5
96E8
330
1E
100
AcDbEntity
  8
10
  6
Continuous
100
AcDbLine
 10
142.9622851126159
 20
91.33847469160071
 30
0.0
 11
143.5138401126159
 21
91.89002469160085
 31
0.0
  0
LINE
  5
96E9
330
1E
100
AcDbEntity
  8
10
  6
Continuous
100
AcDbLine
 10
140.127785112616
 20
84.72536969160076
 30
0.0
 11
140.9804451126158
 21
85.57802969160063
 31
0.0
  0
LINE
  5
96EA
330
1E
100
AcDbEntity
  8
10
  6
Continuous
100
AcDbLine
 10
138.9176451126155
 20
86.45413969160072
 30
0.0
 11
139.7703051126157
 21
87.30680469160075
 31
0.0
  0
LINE
  5
96EB
330
1E
100
AcDbEntity
  8
10
  6
Continuous
100
AcDbLine
 10
142.9622851126159
 20
91.75831469160087
 30
0.0
 11
143.093995112616
 21
91.89002469160085
 31
0.0
  0
LINE
  5
96EC
330
1E
100
AcDbEntity
  8
10
  6
Continuous
100
AcDbLine
 10
142.9622851126159
 20
90.49878469160081
 30
0.0
 11
144.1497851126159
 21
91.68628469160081
 31
0.0
  0
LINE
  5
96ED
330
1E
100
AcDbEntity
  8
10
  6
Continuous
100
AcDbLine
 10
142.9622851126159
 20
87.55986969160071
 30
0.0
 11
144.1497851126159
 21
88.7473696916008
 31
0.0
  0
LINE
  5
96EE
330
1E
100
AcDbEntity
  8
10
  6
Continuous
100
AcDbLine
 10
142.9622851126159
 20
86.3003346916008
 30
0.0
 11
144.1497851126159
 21
87.48783469160093
 31
0.0
  0
LINE
  5
96EF
330
1E
100
AcDbEntity
  8
10
  6
Continuous
100
AcDbLine
 10
142.9622851126159
 20
84.20111469160088
 30
0.0
 11
144.1497851126159
 21
85.38861469160087
 31
0.0
  0
LINE
  5
96F0
330
1E
100
AcDbEntity
  8
10
  6
Continuous
100
AcDbLine
 10
142.9622851126159
 20
88.39955969160071
 30
0.0
 11
144.1497851126159
 21
89.58705969160082
 31
0.0
  0
LINE
  5
96F1
330
1E
100
AcDbEntity
  8
10
  6
Continuous
100
AcDbLine
 10
141.3379251126155
 20
82.99659469160088
 30
0.0
 11
142.1905901126158
 21
83.84925969160084
 31
0.0
  0
LINE
  5
96F2
330
1E
100
AcDbEntity
  8
10
  6
Continuous
100
AcDbLine
 10
138.7447651126157
 20
86.70110469160093
 30
0.0
 11
139.5974301126161
 21
87.55376969160101
 31
0.0
  0
LINE
  5
96F3
330
1E
100
AcDbEntity
  8
10
  6
Continuous
100
AcDbLine
 10
139.4362751126159
 20
85.71323469160075
 30
0.0
 11
140.2889401126157
 21
86.56589969160084
 31
0.0
  0
LINE
  5
96F4
330
1E
100
AcDbEntity
  8
10
  6
Continuous
100
AcDbLine
 10
139.9549051126159
 20
84.97233469160081
 30
0.0
 11
140.8075701126158
 21
85.824999691601
 31
0.0
  0
LINE
  5
96F5
330
1E
100
AcDbEntity
  8
10
  6
Continuous
100
AcDbLine
 10
139.782030112616
 20
85.2193046916008
 30
0.0
 11
140.6346951126161
 21
86.0719646916007
 31
0.0
  0
LINE
  5
96F6
330
1E
100
AcDbEntity
  8
10
  6
Continuous
100
AcDbLine
 10
139.6091501126155
 20
85.46626969160087
 30
0.0
 11
140.4618151126159
 21
86.31893469160081
 31
0.0
  0
LINE
  5
96F7
330
1E
100
AcDbEntity
  8
10
  6
Continuous
100
AcDbLine
 10
142.9622851126159
 20
86.72017969160075
 30
0.0
 11
144.1497851126159
 21
87.90767969160086
 31
0.0
  0
LINE
  5
96F8
330
1E
100
AcDbEntity
  8
10
  6
Continuous
100
AcDbLine
 10
142.9622851126159
 20
90.07893969160079
 30
0.0
 11
144.1497851126159
 21
91.26643969160078
 31
0.0
  0
LINE
  5
96F9
330
1E
100
AcDbEntity
  8
10
  6
Continuous
100
AcDbLine
 10
142.9622851126159
 20
87.97971469160076
 30
0.0
 11
144.1497851126159
 21
89.16721469160076
 31
0.0
  0
LINE
  5
96FA
330
1E
100
AcDbEntity
  8
10
  6
Continuous
100
AcDbLine
 10
142.9622851126159
 20
90.91862969160073
 30
0.0
 11
143.9336851126158
 21
91.89002469160085
 31
0.0
  0
LINE
  5
96FB
330
1E
100
AcDbEntity
  8
10
  6
Continuous
100
AcDbLine
 10
142.9622851126159
 20
83.78126969160087
 30
0.0
 11
144.1497851126159
 21
84.96876969160098
 31
0.0
  0
LINE
  5
96FC
330
1E
100
AcDbEntity
  8
10
  6
Continuous
100
AcDbLine
 10
141.510800112616
 20
82.74962969160092
 30
0.0
 11
142.3634651126158
 21
83.60228969160072
 31
0.0
  0
LINE
  5
96FD
330
1E
100
AcDbEntity
  8
10
  6
Continuous
100
AcDbLine
 10
142.9622851126159
 20
88.81940469160062
 30
0.0
 11
144.1497851126159
 21
90.00690469160071
 31
0.0
  0
LINE
  5
96FE
330
1E
100
AcDbEntity
  8
10
  6
Continuous
100
AcDbLine
 10
142.9622851126159
 20
85.88048969160086
 30
0.0
 11
144.1497851126159
 21
87.06798969160086
 31
0.0
  0
LINE
  5
96FF
330
1E
100
AcDbEntity
  8
10
  6
Continuous
100
AcDbLine
 10
142.9622851126159
 20
85.04080469160088
 30
0.0
 11
144.1497851126159
 21
86.22830469160076
 31
0.0
  0
LINE
  5
9700
330
1E
100
AcDbEntity
  8
10
  6
Continuous
100
AcDbLine
 10
140.8192901126158
 20
83.73749969160092
 30
0.0
 11
141.6719551126158
 21
84.59015969160081
 31
0.0
  0
LINE
  5
9702
330
1E
100
AcDbEntity
  8
10
  6
Continuous
100
AcDbLine
 10
310.4926850000001
 20
47.56613770952546
 30
0.0
 11
346.4780699999998
 21
28.76467270952544
 31
0.0
  0
LINE
  5
9703
330
1E
100
AcDbEntity
  8
10
  6
Continuous
100
AcDbLine
 10
358.2583050000005
 20
45.24879270952548
 30
0.0
 11
353.9224600000004
 21
33.2055177095255
 31
0.0
  0
ARC
  5
9704
330
1E
100
AcDbEntity
  8
30
  6
Continuous
100
AcDbCircle
 10
497.0018205528715
 20
3.835697436321201
 30
0.0
 40
225.5060555675516
100
AcDbArc
 50
165.139448309908
 51
179.6966782288774
  0
ARC
  5
9706
330
1E
100
AcDbEntity
  8
30
  6
Continuous
100
AcDbCircle
 10
496.9999999999997
 20
5.029512709525536
 30
0.0
 40
144.9999999999995
100
AcDbArc
 50
169.304221999999
 51
180.0
  0
ARC
  5
9707
330
1E
100
AcDbEntity
  8
10
  6
Continuous
100
AcDbCircle
 10
295.4035700000001
 20
61.07574770952548
 30
0.0
 40
15.99999999999996
100
AcDbArc
 50
19.39509599999842
 51
301.0049040000021
  0
LINE
  5
9709
330
1E
100
AcDbEntity
  8
10
  6
Continuous
100
AcDbLine
 10
315.6412850000003
 20
61.86692270952543
 30
0.0
 11
355.3530050000001
 21
53.41574770952558
 31
0.0
  0
ARC
  5
970A
330
1E
100
AcDbEntity
  8
10
  6
Continuous
100
AcDbCircle
 10
317.0983450000001
 20
68.71359770952543
 30
0.0
 40
6.999999999999982
100
AcDbArc
 50
199.3950959999984
 51
257.9859390000011
  0
ARC
  5
970B
330
1E
100
AcDbEntity
  8
10
  6
Continuous
100
AcDbCircle
 10
-307.2511350000003
 20
41.36191770952552
 30
0.0
 40
6.999999999999982
210
0.0
220
0.0
230
-1.0
100
AcDbArc
 50
58.99509599999789
 51
117.5859389999994
  0
CIRCLE
  5
9719
330
1E
100
AcDbEntity
  8
17
  6
DASHDOT
100
AcDbCircle
 10
-69.99999999999954
 20
206.0295127095248
 30
0.0
 40
6.499999999999982
  0
CIRCLE
  5
971A
330
1E
100
AcDbEntity
  8
10
  6
Continuous
 62
     2
100
AcDbCircle
 10
0.0
 20
206.0295127095248
 30
0.0
 40
6.499999999999982
  0
LINE
  5
971B
330
1E
100
AcDbEntity
  8
17
  6
DASHDOT
100
AcDbLine
 10
-79.49999999999976
 20
174.0295127095251
 30
0.0
 11
-60.49999999999954
 21
174.0295127095251
 31
0.0
  0
LINE
  5
971C
330
1E
100
AcDbEntity
  8
17
  6
DASHDOT
100
AcDbLine
 10
-79.49999999999976
 20
206.0295127095248
 30
0.0
 11
-60.49999999999954
 21
206.0295127095248
 31
0.0
  0
LINE
  5
971E
330
1E
100
AcDbEntity
  8
17
  6
DASHDOT
100
AcDbLine
 10
-79.49999999999976
 20
166.0295127095249
 30
0.0
 11
-60.49999999999954
 21
166.0295127095249
 31
0.0
  0
ARC
  5
9723
330
1E
100
AcDbEntity
  8
1
  6
Continuous
 62
     5
100
AcDbCircle
 10
0.0
 20
166.0295127095249
 30
0.0
 40
6.499999999999982
100
AcDbArc
 50
180.0
 51
0.0
  0
LINE
  5
9724
330
1E
100
AcDbEntity
  8
24
  6
CONTINOUS
100
AcDbLine
 10
-46.04999999999972
 20
126.0295127095252
 30
0.0
 11
-23.54999999999972
 21
126.0295127095252
 31
0.0
  0
LINE
  5
9726
330
1E
100
AcDbEntity
  8
17
  6
DASHDOT
100
AcDbLine
 10
-9.499999999999772
 20
174.0295127095251
 30
0.0
 11
9.500000000000452
 21
174.0295127095251
 31
0.0
  0
LINE
  5
9727
330
1E
100
AcDbEntity
  8
17
  6
DASHDOT
100
AcDbLine
 10
-9.499999999999772
 20
166.0295127095249
 30
0.0
 11
9.500000000000452
 21
166.0295127095249
 31
0.0
  0
ARC
  5
9728
330
1E
100
AcDbEntity
  8
1
  6
Continuous
 62
     5
100
AcDbCircle
 10
0.0
 20
174.0295127095251
 30
0.0
 40
6.499999999999982
100
AcDbArc
 50
0.0
 51
180.0
  0
LINE
  5
9729
330
1E
100
AcDbEntity
  8
1
  6
Continuous
 62
     5
100
AcDbLine
 10
-6.499999999999543
 20
174.0295127095251
 30
0.0
 11
-6.499999999999543
 21
166.0295127095249
 31
0.0
  0
LINE
  5
972A
330
1E
100
AcDbEntity
  8
1
  6
Continuous
 62
     5
100
AcDbLine
 10
6.500000000000452
 20
174.0295127095251
 30
0.0
 11
6.500000000000452
 21
166.0295127095249
 31
0.0
  0
LINE
  5
972B
330
1E
100
AcDbEntity
  8
17
  6
DASHDOT
100
AcDbLine
 10
-9.499999999999772
 20
206.0295127095248
 30
0.0
 11
9.500000000000452
 21
206.0295127095248
 31
0.0
  0
CIRCLE
  5
9739
330
1E
100
AcDbEntity
  8
10
  6
Continuous
 62
     2
100
AcDbCircle
 10
139.9935351126159
 20
205.9525246916005
 30
0.0
 40
6.499999999999982
  0
CIRCLE
  5
973A
330
1E
100
AcDbEntity
  8
10
  6
Continuous
 62
     2
100
AcDbCircle
 10
70.0
 20
206.0295127095248
 30
0.0
 40
6.499999999999982
  0
LINE
  5
973D
330
1E
100
AcDbEntity
  8
24
  6
CONTINOUS
100
AcDbLine
 10
23.95000000000027
 20
126.0295127095252
 30
0.0
 11
46.45000000000027
 21
126.0295127095252
 31
0.0
  0
LINE
  5
9740
330
1E
100
AcDbEntity
  8
17
  6
DASHDOT
100
AcDbLine
 10
60.5
 20
174.0295127095251
 30
0.0
 11
79.5
 21
174.0295127095251
 31
0.0
  0
LINE
  5
9741
330
1E
100
AcDbEntity
  8
17
  6
DASHDOT
100
AcDbLine
 10
60.5
 20
166.0295127095249
 30
0.0
 11
79.5
 21
166.0295127095249
 31
0.0
  0
LINE
  5
9745
330
1E
100
AcDbEntity
  8
17
  6
DASHDOT
100
AcDbLine
 10
60.5
 20
206.0295127095248
 30
0.0
 11
79.5
 21
206.0295127095248
 31
0.0
  0
LINE
  5
9748
330
1E
100
AcDbEntity
  8
17
  6
DASHDOT
100
AcDbLine
 10
130.4935351126159
 20
173.9525246916004
 30
0.0
 11
149.4935351126159
 21
173.9525246916004
 31
0.0
  0
LINE
  5
9749
330
1E
100
AcDbEntity
  8
17
  6
DASHDOT
100
AcDbLine
 10
130.4935351126159
 20
165.9525246916006
 30
0.0
 11
149.4935351126159
 21
165.9525246916006
 31
0.0
  0
LINE
  5
974D
330
1E
100
AcDbEntity
  8
17
  6
DASHDOT
100
AcDbLine
 10
130.4935351126159
 20
205.9525246916005
 30
0.0
 11
149.4935351126159
 21
205.9525246916005
 31
0.0
  0
DIMENSION
  5
9758
330
1E
100
AcDbEntity
  8
30
  6
Continuous
100
AcDbDimension
  2
*D8
 10
496.9999999999997
 20
-247.0663622904738
 30
0.0
 11
479.9999999999998
 21
-241.0663622904738
 31
0.0
 70
    32
  1
 <> 
 71
     5
 42
33.99999999999971
  3
STANDARD1
100
AcDbAlignedDimension
 13
463.0
 23
-216.9704872904739
 33
0.0
 14
496.9999999999997
 24
-136.9704872904738
 34
0.0
100
AcDbRotatedDimension
  0
DIMENSION
  5
9759
330
1E
100
AcDbEntity
  8
30
  6
Continuous
100
AcDbDimension
  2
*D9
 10
496.9999999999997
 20
-261.4570596902169
 30
0.0
 11
445.4999999999998
 21
-255.4570596902169
 31
0.0
 70
    32
  1
 <> 
 71
     5
 42
102.9999999999995
  3
STANDARD1
100
AcDbAlignedDimension
 13
394.0000000000001
 23
-49.97048729047421
 33
0.0
 14
496.9999999999997
 24
-136.9704872904738
 34
0.0
100
AcDbRotatedDimension
  0
DIMENSION
  5
975A
330
1E
100
AcDbEntity
  8
30
  6
Continuous
100
AcDbDimension
  2
*D10
 10
496.9999999999997
 20
-277.8595104140896
 30
0.0
 11
443.4999999999998
 21
-271.8595104140896
 31
0.0
 70
    32
  1
 <> 
 71
     5
 42
106.9999999999996
  3
STANDARD1
100
AcDbAlignedDimension
 13
390.0
 23
-49.97048729047421
 33
0.0
 14
496.9999999999997
 24
-136.9704872904738
 34
0.0
100
AcDbRotatedDimension
  0
DIMENSION
  5
975B
330
1E
100
AcDbEntity
  8
30
  6
Continuous
100
AcDbDimension
  2
*D11
 10
496.9999999999997
 20
-293.9475881644976
 30
0.0
 11
433.2499999999998
 21
-287.9475881644976
 31
0.0
 70
    32
  1
 <> 
 71
     5
 42
127.4999999999995
  3
STANDARD1
100
AcDbAlignedDimension
 13
369.5000000000001
 23
5.029512709525683
 33
0.0
 14
496.9999999999997
 24
-0.47048729047441
 34
0.0
100
AcDbRotatedDimension
  0
DIMENSION
  5
975C
330
1E
100
AcDbEntity
  8
30
  6
Continuous
100
AcDbDimension
  2
*D12
 10
390.0
 20
-277.8633814253196
 30
0.0
 11
375.2000000000001
 21
-277.8633814253196
 31
0.0
 70
   160
  1
 <> 
 71
     5
 42
3.999999999999828
  3
STANDARD1
100
AcDbAlignedDimension
 13
386.0000000000001
 23
-0.47048729047441
 33
0.0
 14
390.0
 24
-49.97048729047421
 34
0.0
100
AcDbRotatedDimension
1001
ACAD
1000
DSTYLE
1002
{
1070
   172
1070
     1
1002
}
  0
LINE
  5
975E
330
1E
100
AcDbEntity
  8
16
100
AcDbLine
 10
184.999999999999
 20
-499.5708385812683
 30
0.0
 11
-114.5999999999994
 21
-499.5708385812683
 31
0.0
  0
DIMENSION
  5
9774
330
1E
100
AcDbEntity
  8
30
  6
Continuous
100
AcDbDimension
  2
*D13
 10
463.0
 20
-247.0663622904738
 30
0.0
 11
444.2
 21
-247.0663622904738
 31
0.0
 70
   160
  1
 <> 
 71
     5
 42
8.0
  3
STANDARD1
100
AcDbAlignedDimension
 13
455.0
 23
-216.9704872904739
 33
0.0
 14
463.0
 24
-216.9704872904739
 34
0.0
100
AcDbRotatedDimension
1001
ACAD
1000
DSTYLE
1002
{
1070
   172
1070
     1
1070
   174
1070
     1
1002
}
  0
LINE
  5
9781
330
1E
100
AcDbEntity
  8
16
100
AcDbLine
 10
0.0
 20
-641.5708385812681
 30
0.0
 11
0.0
 21
-348.5708385812686
 31
0.0
  0
DIMENSION
  5
9785
330
1E
100
AcDbEntity
  8
30
  6
Continuous
100
AcDbDimension
  2
*D14
 10
34.99999999999909
 20
-671.6667135812681
 30
0.0
 11
-0.0000000000006782
 21
-665.6667135812681
 31
0.0
 70
    32
  1
 <> 
 71
     5
 42
69.99999999999954
  3
STANDARD1
100
AcDbAlignedDimension
 13
-35.00000000000044
 23
-621.5708385812681
 33
0.0
 14
34.99999999999909
 24
-621.5708385812681
 34
0.0
100
AcDbRotatedDimension
  0
LINE
  5
9786
330
1E
100
AcDbEntity
  8
12
  6
Continuous
 62
     3
100
AcDbLine
 10
-41.00000000000045
 20
-616.5708385812681
 30
0.0
 11
-29.0
 21
-616.5708385812681
 31
0.0
  0
LINE
  5
9787
330
1E
100
AcDbEntity
  8
12
  6
Continuous
 62
     3
100
AcDbLine
 10
-35.00000000000091
 20
-610.5708385812678
 30
0.0
 11
-35.00000000000091
 21
-622.5708385812681
 31
0.0
  0
CIRCLE
  5
9788
330
1E
100
AcDbEntity
  8
12
  6
Continuous
 62
     3
100
AcDbCircle
 10
-35.00000000000091
 20
-616.5708385812681
 30
0.0
 40
3.999999999999986
  0
LINE
  5
9789
330
1E
100
AcDbEntity
  8
12
  6
Continuous
 62
     3
100
AcDbLine
 10
34.99999999999953
 20
-610.5708385812678
 30
0.0
 11
34.99999999999953
 21
-622.5708385812681
 31
0.0
  0
CIRCLE
  5
978A
330
1E
100
AcDbEntity
  8
12
  6
Continuous
 62
     3
100
AcDbCircle
 10
34.99999999999953
 20
-616.5708385812681
 30
0.0
 40
3.999999999999986
  0
DIMENSION
  5
978B
330
1E
100
AcDbEntity
  8
30
  6
Continuous
100
AcDbDimension
  2
*D15
 10
37.87922500000013
 20
-619.3475385812687
 30
0.0
 11
21.24154995417029
 21
-605.017438537069
 31
0.0
 70
    35
 71
     5
 42
7.999999872655338
  3
STANDARD1
100
AcDbDiametricDimension
 15
32.12077500000146
 25
-613.7941385812687
 35
0.0
 40
0.0
  0
LINE
  5
978C
330
1E
100
AcDbEntity
  8
12
  6
Continuous
 62
     3
100
AcDbLine
 10
28.99999999999954
 20
-616.5708385812681
 30
0.0
 11
41.0
 21
-616.5708385812681
 31
0.0
  0
LINE
  5
978D
330
1E
100
AcDbEntity
  8
12
  6
Continuous
 62
     3
100
AcDbLine
 10
-41.00000000000045
 20
-373.5708385812686
 30
0.0
 11
-29.0
 21
-373.5708385812686
 31
0.0
  0
LINE
  5
978E
330
1E
100
AcDbEntity
  8
12
  6
Continuous
 62
     3
100
AcDbLine
 10
-35.00000000000091
 20
-367.5708385812686
 30
0.0
 11
-35.00000000000091
 21
-379.5708385812686
 31
0.0
  0
CIRCLE
  5
978F
330
1E
100
AcDbEntity
  8
12
  6
Continuous
 62
     3
100
AcDbCircle
 10
-35.00000000000091
 20
-373.5708385812686
 30
0.0
 40
3.999999999999986
  0
LINE
  5
9790
330
1E
100
AcDbEntity
  8
12
  6
Continuous
 62
     3
100
AcDbLine
 10
34.99999999999953
 20
-367.5708385812686
 30
0.0
 11
34.99999999999953
 21
-379.5708385812686
 31
0.0
  0
LINE
  5
9791
330
1E
100
AcDbEntity
  8
12
  6
Continuous
 62
     3
100
AcDbLine
 10
28.99999999999954
 20
-373.5708385812686
 30
0.0
 11
41.0
 21
-373.5708385812686
 31
0.0
  0
CIRCLE
  5
9792
330
1E
100
AcDbEntity
  8
12
  6
Continuous
 62
     3
100
AcDbCircle
 10
34.99999999999953
 20
-373.5708385812686
 30
0.0
 40
3.999999999999986
  0
LINE
  5
97A0
330
1E
100
AcDbEntity
  8
10
  6
Continuous
100
AcDbLine
 10
390.0000000000001
 20
-44.97048729047434
 30
0.0
 11
390.0000000000001
 21
45.02951270952542
 31
0.0
  0
LINE
  5
97A3
330
1E
100
AcDbEntity
  8
12
  6
DASHED
100
AcDbLine
 10
460.7
 20
-116.9704872904741
 30
0.0
 11
512.9999999999999
 21
-116.9704872904741
 31
0.0
  0
LINE
  5
97A9
330
1E
100
AcDbEntity
  8
17
  6
DASHDOT
100
AcDbLine
 10
449.0
 20
-196.970487290474
 30
0.0
 11
468.0
 21
-196.970487290474
 31
0.0
  0
LINE
  5
97AA
330
1E
100
AcDbEntity
  8
17
  6
DASHDOT
100
AcDbLine
 10
449.0
 20
-164.9704872904738
 30
0.0
 11
468.0
 21
-164.9704872904738
 31
0.0
  0
LINE
  5
97AB
330
1E
100
AcDbEntity
  8
17
  6
DASHDOT
100
AcDbLine
 10
449.0
 20
-156.9704872904738
 30
0.0
 11
468.0
 21
-156.9704872904738
 31
0.0
  0
DIMENSION
  5
97B3
330
1E
100
AcDbEntity
  8
30
  6
Continuous
100
AcDbDimension
  2
*D16
 10
496.9999999999997
 20
-72.06636229047417
 30
0.0
 11
482.9999999999998
 21
-66.06636229047417
 31
0.0
 70
    32
  1
 <> 
 71
     5
 42
27.9999999999997
  3
STANDARD1
100
AcDbAlignedDimension
 13
469.0
 23
-103.720487290474
 33
0.0
 14
496.9999999999997
 24
-78.31636229047416
 34
0.0
100
AcDbRotatedDimension
  0
DIMENSION
  5
97BB
330
1E
100
AcDbEntity
  8
30
  6
Continuous
100
AcDbDimension
  2
*D17
 10
496.9999999999997
 20
-72.06636229047417
 30
0.0
 11
503.4999999999998
 21
-72.06636229047417
 31
0.0
 70
   160
  1
 <> 
 71
     5
 42
13.00000000000028
  3
STANDARD1
100
AcDbAlignedDimension
 13
510.0
 23
-107.970487290474
 33
0.0
 14
496.9999999999997
 24
-78.31636229047416
 34
0.0
100
AcDbRotatedDimension
  0
ARC
  5
97BE
330
1E
100
AcDbEntity
  8
10
  6
Continuous
100
AcDbCircle
 10
378.4609500000001
 20
40.84504270952545
 30
0.0
 40
3.999999999999986
100
AcDbArc
 50
340.1999999999993
 51
70.19999999999922
  0
ARC
  5
97C0
330
1E
100
AcDbEntity
  8
10
  6
Continuous
100
AcDbCircle
 10
372.2959200000001
 20
23.72101270952557
 30
0.0
 40
3.999999999999986
100
AcDbArc
 50
250.199999999999
 51
340.1999999999993
  0
ARC
  5
97C1
330
1E
100
AcDbEntity
  8
30
  6
Continuous
100
AcDbCircle
 10
496.9999999999997
 20
5.029512709525536
 30
0.0
 40
127.4999999999996
100
AcDbArc
 50
169.304221999999
 51
180.0
  0
LINE
  5
97C2
330
1E
100
AcDbEntity
  8
10
  6
Continuous
100
AcDbLine
 10
386.3819850000001
 20
24.07016770952552
 30
0.0
 11
370.8244900000003
 21
29.67121270952546
 31
0.0
  0
LINE
  5
97C3
330
1E
100
AcDbEntity
  8
10
  6
Continuous
100
AcDbLine
 10
386.7790400000001
 20
32.42989270952536
 30
0.0
 11
373.5343950000001
 21
37.19825770952565
 31
0.0
  0
LINE
  5
97C4
330
1E
100
AcDbEntity
  8
10
  6
Continuous
100
AcDbLine
 10
382.2244750000001
 20
39.49008770952542
 30
0.0
 11
376.0594450000001
 21
22.36605770952555
 31
0.0
  0
LINE
  5
97C5
330
1E
100
AcDbEntity
  8
10
  6
Continuous
100
AcDbLine
 10
373.5343950000001
 20
37.19825770952565
 30
0.0
 11
370.8244900000003
 21
29.67121270952546
 31
0.0
  0
DIMENSION
  5
97DC
330
1E
100
AcDbEntity
  8
30
  6
Continuous
100
AcDbDimension
  2
*D18
 10
496.9999999999997
 20
252.9336377095249
 30
0.0
 11
480.9999999999996
 21
258.9336377095249
 31
0.0
 70
    32
  1
 <> 
 71
     5
 42
32.0
  3
STANDARD1
100
AcDbAlignedDimension
 13
464.9999999999997
 23
226.029512709525
 33
0.0
 14
496.9999999999997
 24
146.029512709525
 34
0.0
100
AcDbRotatedDimension
  0
LINE
  5
97DE
330
1E
100
AcDbEntity
  8
17
  6
DASHDOT
100
AcDbLine
 10
451.5000000000001
 20
166.0295127095249
 30
0.0
 11
470.5000000000001
 21
166.0295127095249
 31
0.0
  0
LINE
  5
97DF
330
1E
100
AcDbEntity
  8
17
  6
DASHDOT
100
AcDbLine
 10
451.5000000000001
 20
174.0295127095251
 30
0.0
 11
470.5000000000001
 21
174.0295127095251
 31
0.0
  0
LINE
  5
97E0
330
1E
100
AcDbEntity
  8
17
  6
DASHDOT
100
AcDbLine
 10
451.5000000000001
 20
206.0295127095248
 30
0.0
 11
470.5000000000001
 21
206.0295127095248
 31
0.0
  0
DIMENSION
  5
97E1
330
1E
100
AcDbEntity
  8
30
  6
Continuous
100
AcDbDimension
  2
*D19
 10
464.9999999999997
 20
252.9336377095249
 30
0.0
 11
458.8092461915421
 21
257.8529569285765
 31
0.0
 70
   160
  1
 <> 
 71
     5
 42
7.999999999999714
  3
STANDARD1
100
AcDbAlignedDimension
 13
457.0
 23
226.029512709525
 33
0.0
 14
464.9999999999997
 24
226.029512709525
 34
0.0
100
AcDbRotatedDimension
1001
ACAD
1000
DSTYLE
1002
{
1070
   279
1070
     2
1070
   172
1070
     1
1002
}
  0
LINE
  5
97E7
330
1E
100
AcDbEntity
  8
16
100
AcDbLine
 10
400.0
 20
-641.570838581268
 30
0.0
 11
400.0
 21
-311.1223138706054
 31
0.0
  0
LINE
  5
97EA
330
1E
100
AcDbEntity
  8
16
100
AcDbLine
 10
584.9999999999994
 20
-499.5708385812683
 30
0.0
 11
285.3999999999996
 21
-499.5708385812683
 31
0.0
  0
DIMENSION
  5
97EB
330
1E
100
AcDbEntity
  8
30
  6
Continuous
100
AcDbDimension
  2
*D20
 10
266.6460999999999
 20
-545.5708385812681
 30
0.0
 11
260.6460999999999
 21
-499.5708385812681
 31
0.0
 70
    32
  1
 <> 
 71
     0
 72
     0
 41
0.0
 42
91.99999999999972
  3
STANDARD1
100
AcDbAlignedDimension
 13
320.1999999999998
 23
-453.5708385812683
 33
0.0
 14
320.1999999999998
 24
-545.5708385812681
 34
0.0
 50
90.0
100
AcDbRotatedDimension
  0
LWPOLYLINE
  5
9DD3
330
1E
100
AcDbEntity
  8
10
  6
Continuous
100
AcDbPolyline
 90
        5
 70
     0
 43
0.0
 10
-58.79999999999951
 20
116.0295127095252
 42
1.0
 10
-58.79999999999951
 20
136.0295127095249
 10
-80.79999999999973
 20
136.0295127095249
 42
1.0
 10
-80.79999999999973
 20
116.0295127095252
 10
-80.79999999999973
 20
116.0295127095252
  0
LWPOLYLINE
  5
9DD4
330
1E
100
AcDbEntity
  8
10
  6
Continuous
100
AcDbPolyline
 90
        4
 70
     0
 43
0.0
 10
-89.99999999999955
 20
141.0295127095253
 10
-89.99999999999955
 20
221.0295127095251
 10
-49.99999999999954
 20
221.0295127095251
 10
-49.99999999999954
 20
141.0295127095253
  0
LWPOLYLINE
  5
9DD5
330
1E
100
AcDbEntity
  8
17
  6
DASHDOT
100
AcDbPolyline
 90
        5
 70
     1
 43
0.0
 10
-76.49999999999976
 20
174.0295127095251
 10
-76.49999999999976
 20
166.0295127095249
 42
0.9999999999999998
 10
-63.49999999999977
 20
166.0295127095249
 10
-63.49999999999955
 20
174.0295127095251
 42
1.000000000000011
 10
-76.49999999999976
 20
174.0295127095251
  0
LWPOLYLINE
  5
9DD6
330
1E
100
AcDbEntity
  8
18
100
AcDbPolyline
 90
        4
 70
     0
 43
0.0
 10
-36.99999999999953
 20
141.0295127095253
 10
-36.99999999999953
 20
251.029512709525
 10
-32.99999999999977
 20
251.029512709525
 10
-32.99999999999977
 20
141.0295127095253
  0
LWPOLYLINE
  5
9DD7
330
1E
100
AcDbEntity
  8
10
  6
Continuous
100
AcDbPolyline
 90
        5
 70
     0
 43
0.0
 10
11.20000000000001
 20
116.0295127095252
 42
1.0
 10
11.20000000000001
 20
136.0295127095249
 10
-10.79999999999972
 20
136.0295127095249
 42
1.0
 10
-10.79999999999972
 20
116.0295127095252
 10
-10.79999999999972
 20
116.0295127095252
  0
LWPOLYLINE
  5
9DD8
330
1E
100
AcDbEntity
  8
10
  6
Continuous
100
AcDbPolyline
 90
        4
 70
     0
 43
0.0
 10
-19.99999999999953
 20
141.0295127095253
 10
-19.99999999999953
 20
221.0295127095251
 10
20.00000000000022
 20
221.0295127095251
 10
20.00000000000022
 20
141.0295127095253
  0
LWPOLYLINE
  5
9DD9
330
1E
100
AcDbEntity
  8
10
  6
Continuous
 62
     2
100
AcDbPolyline
 90
        5
 70
     1
 43
0.0
 10
-6.499999999999772
 20
174.0295127095251
 10
-6.499999999999772
 20
166.0295127095249
 42
0.9999999999999998
 10
6.5
 20
166.0295127095249
 10
6.500000000000227
 20
174.0295127095251
 42
1.000000000000011
 10
-6.499999999999772
 20
174.0295127095251
  0
LWPOLYLINE
  5
9DDA
330
1E
100
AcDbEntity
  8
18
100
AcDbPolyline
 90
        4
 70
     0
 43
0.0
 10
33.00000000000022
 20
141.0295127095253
 10
33.00000000000022
 20
251.029512709525
 10
37.0
 20
251.029512709525
 10
37.0
 20
141.0295127095253
  0
LWPOLYLINE
  5
9DDB
330
1E
100
AcDbEntity
  8
10
  6
Continuous
100
AcDbPolyline
 90
        4
 70
     0
 43
0.0
 10
49.99999999999977
 20
141.0295127095253
 10
49.99999999999977
 20
221.0295127095251
 10
90.0
 20
221.0295127095251
 10
90.0
 20
141.0295127095253
  0
LWPOLYLINE
  5
9DDC
330
1E
100
AcDbEntity
  8
10
  6
Continuous
 62
     2
100
AcDbPolyline
 90
        5
 70
     1
 43
0.0
 10
63.49999999999977
 20
174.0295127095251
 10
63.49999999999977
 20
166.0295127095249
 42
0.9999999999999998
 10
76.49999999999955
 20
166.0295127095249
 10
76.49999999999976
 20
174.0295127095251
 42
1.000000000000011
 10
63.49999999999977
 20
174.0295127095251
  0
LWPOLYLINE
  5
9DDD
330
1E
100
AcDbEntity
  8
10
  6
Continuous
100
AcDbPolyline
 90
        5
 70
     0
 43
0.0
 10
81.19999999999981
 20
116.0295127095252
 42
1.0
 10
81.19999999999981
 20
136.0295127095249
 10
59.19999999999982
 20
136.0295127095249
 42
1.0
 10
59.19999999999982
 20
116.0295127095252
 10
59.19999999999982
 20
116.0295127095252
  0
LWPOLYLINE
  5
9DDE
330
1E
100
AcDbEntity
  8
18
100
AcDbPolyline
 90
        4
 70
     0
 43
0.0
 10
102.9999999999997
 20
141.0295127095253
 10
102.9999999999997
 20
251.029512709525
 10
106.9999999999996
 20
251.029512709525
 10
106.9999999999996
 20
141.0295127095253
  0
LWPOLYLINE
  5
9DDF
330
1E
100
AcDbEntity
  8
10
  6
Continuous
100
AcDbPolyline
 90
        4
 70
     0
 43
0.0
 10
119.9935351126157
 20
140.9525246916006
 10
119.9935351126157
 20
220.9525246916005
 10
159.9935351126155
 20
220.9525246916006
 10
159.9935351126155
 20
140.9525246916006
  0
LWPOLYLINE
  5
9DE0
330
1E
100
AcDbEntity
  8
10
  6
Continuous
 62
     2
100
AcDbPolyline
 90
        5
 70
     1
 43
0.0
 10
133.4935351126157
 20
173.9525246916004
 10
133.4935351126157
 20
165.9525246916006
 42
0.9999999999999998
 10
146.4935351126155
 20
165.9525246916006
 10
146.4935351126155
 20
173.9525246916004
 42
1.000000000000011
 10
133.4935351126157
 20
173.9525246916004
  0
LWPOLYLINE
  5
9DE1
330
1E
100
AcDbEntity
  8
10
  6
Continuous
100
AcDbPolyline
 90
        5
 70
     0
 43
0.0
 10
151.1935351126155
 20
115.9525246916006
 42
1.0
 10
151.1935351126155
 20
135.9525246916005
 10
129.1935351126157
 20
135.9525246916005
 42
1.0
 10
129.1935351126157
 20
115.9525246916006
 10
129.1935351126157
 20
115.9525246916006
  0
LWPOLYLINE
  5
9DE2
330
1E
100
AcDbEntity
  8
10
  6
Continuous
100
AcDbPolyline
 90
        4
 70
     1
 43
0.0
 10
-104.9999999999994
 20
141.0295127095253
 10
174.9935351126158
 20
140.9525246916006
 10
174.9935351126158
 20
-132.0474753083987
 10
-104.9999999999994
 20
-131.9704872904738
  0
LWPOLYLINE
  5
9DE3
330
1E
100
AcDbEntity
  8
10
  6
Continuous
100
AcDbPolyline
 90
        4
 70
     0
 43
0.0
 10
-18.0
 20
29.67121270952544
 10
-18.0
 20
-25.47048729047434
 10
18.0
 20
-25.47048729047434
 10
18.0
 20
29.67121270952544
  0
LWPOLYLINE
  5
9DE4
330
1E
100
AcDbEntity
  8
10
  6
Continuous
100
AcDbPolyline
 90
        4
 70
     1
 43
0.0
 10
-20.79999999999995
 20
37.19825770952565
 10
20.79999999999995
 20
37.19825770952565
 10
20.79999999999995
 20
29.67121270952544
 10
-20.79999999999995
 20
29.67121270952544
  0
LWPOLYLINE
  5
9DE5
330
1E
100
AcDbEntity
  8
10
  6
Continuous
100
AcDbPolyline
 90
        4
 70
     1
 43
0.0
 10
19.0
 20
-29.67048729047435
 10
24.5
 20
-29.67048729047435
 10
24.5
 20
-36.57048729047431
 10
19.0
 20
-36.57048729047431
  0
LWPOLYLINE
  5
9DE6
330
1E
100
AcDbEntity
  8
10
  6
Continuous
100
AcDbPolyline
 90
        9
 70
     1
 43
0.0
 10
80.20000000000004
 20
45.02951270952544
 10
-79.59999999999968
 20
45.02951270952544
 42
0.4142135623730887
 10
-84.59999999999968
 20
40.02951270952549
 10
-84.59999999999968
 20
-39.97048729047434
 42
0.4142135623730919
 10
-79.59999999999968
 20
-44.97048729047434
 10
80.20000000000004
 20
-44.97048729047434
 42
0.4142135623730913
 10
85.20000000000004
 20
-39.97048729047434
 10
85.1999999999998
 20
40.02951270952549
 42
0.4142135623730943
 10
80.20000000000004
 20
45.02951270952544
  0
LWPOLYLINE
  5
9DE7
330
1E
100
AcDbEntity
  8
10
  6
Continuous
100
AcDbPolyline
 90
        5
 70
     0
 43
0.0
 10
-80.79999999999996
 20
-106.9704872904742
 42
1.0
 10
-80.79999999999996
 20
-126.9704872904741
 10
-58.79999999999972
 20
-126.9704872904741
 42
1.0
 10
-58.79999999999972
 20
-106.9704872904742
 10
-58.79999999999972
 20
-106.9704872904742
  0
LWPOLYLINE
  5
9DE8
330
1E
100
AcDbEntity
  8
10
  6
Continuous
100
AcDbPolyline
 90
        5
 70
     0
 43
0.0
 10
-10.60000000000013
 20
-106.970487290474
 42
1.0
 10
-10.60000000000013
 20
-126.9704872904741
 10
11.39999999999986
 20
-126.9704872904741
 42
1.0
 10
11.39999999999986
 20
-106.9704872904742
 10
11.39999999999986
 20
-106.9704872904742
  0
LWPOLYLINE
  5
9DE9
330
1E
100
AcDbEntity
  8
10
  6
Continuous
100
AcDbPolyline
 90
        5
 70
     0
 43
0.0
 10
59.19999999999982
 20
-106.970487290474
 42
1.0
 10
59.19999999999982
 20
-126.9704872904741
 10
81.19999999999981
 20
-126.9704872904741
 42
1.0
 10
81.19999999999981
 20
-106.9704872904742
 10
81.19999999999981
 20
-106.9704872904742
  0
LWPOLYLINE
  5
9DEA
330
1E
100
AcDbEntity
  8
10
  6
Continuous
100
AcDbPolyline
 90
        4
 70
     0
 43
0.0
 10
-50.0
 20
-131.9704872904738
 10
-50.0
 20
-211.9704872904739
 10
-89.99999999999976
 20
-211.970487290474
 10
-89.99999999999976
 20
-131.9704872904738
  0
LWPOLYLINE
  5
9DEB
330
1E
100
AcDbEntity
  8
10
  6
Continuous
100
AcDbPolyline
 90
        4
 70
     0
 43
0.0
 10
20.0
 20
-131.9704872904738
 10
20.0
 20
-211.9704872904739
 10
-19.99999999999976
 20
-211.970487290474
 10
-19.99999999999976
 20
-131.9704872904738
  0
LWPOLYLINE
  5
9DEC
330
1E
100
AcDbEntity
  8
10
  6
Continuous
100
AcDbPolyline
 90
        4
 70
     0
 43
0.0
 10
89.99999999999976
 20
-131.9704872904738
 10
89.99999999999976
 20
-211.9704872904739
 10
49.99999999999977
 20
-211.970487290474
 10
49.99999999999977
 20
-131.9704872904738
  0
LWPOLYLINE
  5
9DED
330
1E
100
AcDbEntity
  8
10
  6
Continuous
 62
     2
100
AcDbPolyline
 90
        5
 70
     1
 43
0.0
 10
-63.49999999999977
 20
-164.9704872904738
 10
-63.49999999999977
 20
-156.9704872904738
 42
0.9999999999999998
 10
-76.49999999999976
 20
-156.9704872904738
 10
-76.49999999999976
 20
-164.9704872904738
 42
1.000000000000011
 10
-63.49999999999977
 20
-164.9704872904738
  0
LWPOLYLINE
  5
9DEE
330
1E
100
AcDbEntity
  8
10
  6
Continuous
 62
     2
100
AcDbPolyline
 90
        5
 70
     1
 43
0.0
 10
6.5
 20
-164.9704872904738
 10
6.5
 20
-156.9704872904738
 42
0.9999999999999998
 10
-6.499999999999772
 20
-156.9704872904738
 10
-6.5
 20
-164.9704872904738
 42
1.000000000000011
 10
6.5
 20
-164.9704872904738
  0
LWPOLYLINE
  5
9DEF
330
1E
100
AcDbEntity
  8
10
  6
Continuous
 62
     2
100
AcDbPolyline
 90
        5
 70
     1
 43
0.0
 10
76.49999999999976
 20
-164.9704872904738
 10
76.49999999999976
 20
-156.9704872904738
 42
0.9999999999999998
 10
63.5
 20
-156.9704872904738
 10
63.5
 20
-164.9704872904738
 42
1.000000000000011
 10
76.49999999999976
 20
-164.9704872904738
  0
LWPOLYLINE
  5
9DF0
330
1E
100
AcDbEntity
  8
10
  6
Continuous
100
AcDbPolyline
 90
        5
 70
     0
 43
0.0
 10
129.1935351126157
 20
-107.0474753083987
 42
1.0
 10
129.1935351126157
 20
-127.0474753083987
 10
151.1935351126155
 20
-127.0474753083987
 42
1.0
 10
151.1935351126155
 20
-107.0474753083987
 10
151.1935351126155
 20
-107.0474753083987
  0
LWPOLYLINE
  5
9DF1
330
1E
100
AcDbEntity
  8
10
  6
Continuous
100
AcDbPolyline
 90
        4
 70
     0
 43
0.0
 10
159.9935351126155
 20
-132.0474753083987
 10
159.9935351126155
 20
-212.0474753083985
 10
119.9935351126157
 20
-212.0474753083985
 10
119.9935351126157
 20
-132.0474753083987
  0
LWPOLYLINE
  5
9DF2
330
1E
100
AcDbEntity
  8
10
  6
Continuous
 62
     2
100
AcDbPolyline
 90
        5
 70
     1
 43
0.0
 10
146.4935351126155
 20
-165.0474753083985
 10
146.4935351126155
 20
-157.0474753083986
 42
0.9999999999999998
 10
133.4935351126159
 20
-157.0474753083986
 10
133.4935351126159
 20
-165.0474753083985
 42
1.000000000000011
 10
146.4935351126155
 20
-165.0474753083985
  0
LWPOLYLINE
  5
9E8D
330
1E
100
AcDbEntity
  8
10
  6
Continuous
100
AcDbPolyline
 90
        4
 70
     0
 43
0.0
 10
457.0
 20
141.0295127095253
 10
457.0
 20
221.0295127095251
 10
465.0
 20
221.0295127095251
 10
465.0000000000002
 20
141.0295127095253
  0
LWPOLYLINE
  5
9E8E
330
1E
100
AcDbEntity
  8
10
  6
Continuous
100
AcDbPolyline
 90
        4
 70
     0
 43
0.0
 10
394.0000000000001
 20
45.02951270952544
 10
387.0
 20
45.02951270952544
 10
387.0
 20
-44.97048729047434
 10
394.0000000000001
 20
-44.97048729047434
  0
LWPOLYLINE
  5
9E8F
330
1E
100
AcDbEntity
  8
10
  6
Continuous
100
AcDbPolyline
 90
       13
 70
     0
 43
0.0
 10
496.9999999999997
 20
141.0295127095253
 10
400.0000000000001
 20
141.0295127095253
 10
400.0000000000001
 20
116.0295127095252
 10
397.5
 20
116.0295127095252
 10
397.5
 20
55.52951270952539
 10
394.0000000000001
 20
55.52951270952539
 10
394.0000000000001
 20
-46.47048729047422
 10
397.5
 20
-46.47048729047422
 10
397.5
 20
-106.9704872904742
 10
400.0000000000001
 20
-106.9704872904742
 10
400.0000000000001
 20
-131.9704872904738
 10
496.9999999999997
 20
-131.9704872904738
 10
496.9999999999997
 20
141.0295127095253
  0
LWPOLYLINE
  5
9E91
330
1E
100
AcDbEntity
  8
12
  6
DASHED
100
AcDbPolyline
 90
        4
 70
     0
 43
0.0
 10
400.0000000000001
 20
-108.7204872904741
 10
469.0
 20
-108.7204872904741
 10
469.0000000000002
 20
-125.2204872904739
 10
400.0000000000001
 20
-125.2204872904739
  0
LWPOLYLINE
  5
9E92
330
1E
100
AcDbEntity
  8
12
  6
DASHED
100
AcDbPolyline
 90
        6
 70
     0
 43
0.0
 10
469.0
 20
-108.970487290474
 10
468.3299999999999
 20
-108.970487290474
 42
0.4142135623730733
 10
462.9999999999998
 20
-114.3004872904739
 10
463.0000000000001
 20
-119.640487290474
 42
0.414213562373041
 10
468.3299999999999
 20
-124.9704872904739
 10
469.0
 20
-124.9704872904741
  0
LWPOLYLINE
  5
9E94
330
1E
100
AcDbEntity
  8
12
  6
DASHED
100
AcDbPolyline
 90
        4
 70
     0
 43
0.0
 10
469.0
 20
-112.970487290474
 10
510.0
 20
-112.970487290474
 10
510.0
 20
-120.9704872904739
 10
469.0000000000002
 20
-120.9704872904745
  0
LWPOLYLINE
  5
9E95
330
1E
100
AcDbEntity
  8
10
  6
Continuous
100
AcDbPolyline
 90
        4
 70
     0
 43
0.0
 10
455.0
 20
-131.9704872904738
 10
455.0
 20
-211.9704872904739
 10
463.0
 20
-211.9704872904739
 10
463.0
 20
-131.9704872904738
  0
LWPOLYLINE
  5
9F23
330
1E
100
AcDbEntity
  8
11
 48
2.0
100
AcDbPolyline
 90
        9
 70
     1
 43
0.0
 10
480.1999999999998
 20
-453.5708385812683
 10
320.1999999999998
 20
-453.5708385812683
 42
0.4142135623730951
 10
314.1999999999999
 20
-459.5708385812684
 10
314.1999999999999
 20
-539.5708385812683
 42
0.4142135623730966
 10
320.1999999999998
 20
-545.5708385812681
 10
480.1999999999998
 20
-545.5708385812681
 42
0.4142135623730673
 10
486.2000000000001
 20
-539.5708385812683
 10
486.2000000000001
 20
-459.5708385812684
 42
0.4142135623731171
 10
480.1999999999998
 20
-453.5708385812683
  0
DIMENSION
  5
9F25
330
1E
100
AcDbEntity
  8
30
  6
Continuous
100
AcDbDimension
  2
*D31
 10
320.2000000000021
 20
-459.5708385812688
 30
0.0
 11
334.8040162042881
 21
-470.093324537783
 31
0.0
 70
   164
 71
     5
 42
6.000000000002271
  3
STANDARD1
100
AcDbRadialDimension
 15
323.3895258423824
 25
-464.6528583471508
 35
0.0
 40
0.0
  0
LWPOLYLINE
  5
9F2F
330
1E
100
AcDbEntity
  8
18
  6
DIVIDE
100
AcDbPolyline
 90
        4
 70
     1
 43
0.0
 10
295.4000000000005
 20
-358.5708385812686
 10
574.9999999999994
 20
-358.5708385812686
 10
574.9999999999994
 20
-631.570838581268
 10
295.4000000000005
 20
-631.570838581268
  0
LWPOLYLINE
  5
9F3A
330
1E
100
AcDbEntity
  8
18
  6
DIVIDE
100
AcDbPolyline
 90
        4
 70
     1
 43
0.0
 10
-104.5999999999994
 20
-358.5708385812687
 10
174.9999999999995
 20
-358.5708385812687
 10
174.9999999999995
 20
-631.5708385812683
 10
-104.5999999999994
 20
-631.5708385812683
  0
DIMENSION
  5
A8DA
330
1E
100
AcDbEntity
  8
30
  6
Continuous
100
AcDbDimension
  2
*D32
 10
68.42671765024021
 20
199.6327885124166
 30
0.0
 11
76.99999999999997
 21
234.0
 31
0.0
 70
   163
 71
     5
 42
12.99999806930126
  3
STANDARD1
100
AcDbDiametricDimension
 15
71.5732823497596
 25
212.2462369066336
 35
0.0
 40
0.0
1001
ACAD
1000
DSTYLE
1002
{
1070
   279
1070
     1
1002
}
  0
DIMENSION
  5
A8DB
330
1E
100
AcDbEntity
  8
30
  6
Continuous
100
AcDbDimension
  2
*D33
 10
76.49999750000006
 20
187.0
 30
0.0
 11
69.99999749999995
 21
187.0
 31
0.0
 70
   160
  1
 <> 
 71
     5
 42
13.00000000000021
  3
STANDARD1
100
AcDbAlignedDimension
 13
63.49999749999985
 23
174.9395102095251
 33
0.0
 14
76.49999750000006
 24
174.9395102095251
 34
0.0
100
AcDbRotatedDimension
  0
DIMENSION
  5
B26F
330
1E
100
AcDbEntity
  8
30
  6
Continuous
100
AcDbDimension
  2
*D34
 10
-178.1134758423905
 20
-132.0474753083987
 30
0.0
 11
-184.1134758423905
 21
-172.0474753083984
 31
0.0
 70
    32
  1
 <> 
 71
     0
 72
     0
 41
0.0
 42
79.9999999999998
  3
STANDARD1
100
AcDbAlignedDimension
 13
-94.99999999999932
 23
-212.0474753083985
 33
0.0
 14
-109.9999999999992
 24
-132.0474753083987
 34
0.0
 50
90.0
100
AcDbRotatedDimension
  0
DIMENSION
  5
B270
330
1E
100
AcDbEntity
  8
30
  6
Continuous
100
AcDbDimension
  2
*D36
 10
-161.6993509957453
 20
-0.0474753083990495
 30
0.0
 11
-167.6993509957453
 21
70.4525246916008
 31
0.0
 70
    32
  1
 <> 
 71
     0
 72
     0
 41
0.0
 42
140.9999999999996
  3
STANDARD1
100
AcDbAlignedDimension
 13
-109.9999999999992
 23
140.9525246916006
 33
0.0
 14
-119.999999999999
 24
-0.0474753083990613
 34
0.0
 50
90.0
100
AcDbRotatedDimension
  0
DIMENSION
  5
B271
330
1E
100
AcDbEntity
  8
30
  6
Continuous
100
AcDbDimension
  2
*D35
 10
-178.1134758423905
 20
140.9525246916006
 30
0.0
 11
-184.1134758423905
 21
4.452524691600967
 31
0.0
 70
    32
  1
 <> 
 71
     0
 72
     0
 41
0.0
 42
272.9999999999993
  3
STANDARD1
100
AcDbAlignedDimension
 13
-109.9999999999992
 23
-132.0474753083987
 33
0.0
 14
-109.9999999999992
 24
140.9525246916006
 34
0.0
 50
90.0
100
AcDbRotatedDimension
  0
DIMENSION
  5
B272
330
1E
100
AcDbEntity
  8
30
  6
Continuous
100
AcDbDimension
  2
*D37
 10
-161.6993509957453
 20
-132.0474753083987
 30
0.0
 11
-167.699350995745
 21
-66.0474753083989
 31
0.0
 70
    32
  1
 <> 
 71
     0
 72
     0
 41
0.0
 42
131.9999999999996
  3
STANDARD1
100
AcDbAlignedDimension
 13
-119.999999999999
 23
-0.0474753083990613
 33
0.0
 14
-109.9999999999992
 24
-132.0474753083987
 34
0.0
 50
90.0
100
AcDbRotatedDimension
  0
DIMENSION
  5
B273
330
1E
100
AcDbEntity
  8
30
  6
Continuous
100
AcDbDimension
  2
*D38
 10
-178.1134758423905
 20
220.9525246916004
 30
0.0
 11
-184.1134758423905
 21
180.9525246916004
 31
0.0
 70
    32
  1
 <> 
 71
     0
 72
     0
 41
0.0
 42
79.99999999999976
  3
STANDARD1
100
AcDbAlignedDimension
 13
-109.9999999999992
 23
140.9525246916006
 33
0.0
 14
-94.99999999999932
 24
220.9525246916004
 34
0.0
 50
90.0
100
AcDbRotatedDimension
  0
LINE
  5
B3DB
330
1E
100
AcDbEntity
  8
16
100
AcDbLine
 10
0.0
 20
422.3526745713753
 30
0.0
 11
0.0
 21
245.9526745713758
 31
0.0
  0
LWPOLYLINE
  5
B66C
330
1E
100
AcDbEntity
  8
10
  6
Continuous
100
AcDbPolyline
 90
        4
 70
     1
 43
0.0
 10
-49.99999999999954
 20
366.3526745713753
 10
-89.99999999999955
 20
366.3526745713753
 10
-89.99999999999955
 20
374.3526745713753
 10
-49.99999999999954
 20
374.3526745713753
  0
LWPOLYLINE
  5
B66E
330
1E
100
AcDbEntity
  8
10
  6
Continuous
100
AcDbPolyline
 90
        4
 70
     1
 43
0.0
 10
20.00000000000022
 20
366.3526745713753
 10
-19.99999999999976
 20
366.3526745713753
 10
-19.99999999999976
 20
374.3526745713753
 10
20.00000000000022
 20
374.3526745713753
  0
LWPOLYLINE
  5
B66F
330
1E
100
AcDbEntity
  8
10
  6
Continuous
100
AcDbPolyline
 90
        4
 70
     1
 43
0.0
 10
90.0
 20
366.3526745713753
 10
50.0
 20
366.3526745713753
 10
50.0
 20
374.3526745713753
 10
90.0
 20
374.3526745713753
  0
LWPOLYLINE
  5
B670
330
1E
100
AcDbEntity
  8
10
  6
Continuous
100
AcDbPolyline
 90
        4
 70
     1
 43
0.0
 10
159.9935351126155
 20
366.3526745713753
 10
119.9935351126157
 20
366.3526745713753
 10
119.9935351126157
 20
374.3526745713753
 10
159.9935351126155
 20
374.3526745713753
  0
DIMENSION
  5
B671
330
1E
100
AcDbEntity
  8
30
  6
Continuous
100
AcDbDimension
  2
*D43
 10
196.9636107915585
 20
374.3526745713753
 30
0.0
 11
260.7232814996204
 21
387.9328973837908
 31
0.0
 70
   160
  1
ON SIDE 32\POFF SIDE 34
 71
     5
 42
33.99999999999983
  3
STANDARD1
100
AcDbAlignedDimension
 13
177.7872924674434
 23
408.3526745713751
 33
0.0
 14
162.7872924674434
 24
374.3526745713753
 34
0.0
 50
90.0
100
AcDbRotatedDimension
1001
ACAD
1000
DSTYLE
1002
{
1070
   172
1070
     1
1070
   279
1070
     2
1002
}
  0
DIMENSION
  5
B797
330
1E
100
AcDbEntity
  8
30
  6
Continuous
100
AcDbDimension
  2
*D44
 10
196.9636107915585
 20
366.3526745713753
 30
0.0
 11
189.6016897978478
 21
369.9793944294363
 31
0.0
 70
   160
 71
     5
 42
8.0
  3
STANDARD1
100
AcDbAlignedDimension
 13
159.9935351126155
 23
374.3526745713753
 33
0.0
 14
159.9935351126155
 24
366.3526745713753
 34
0.0
 50
90.0
100
AcDbRotatedDimension
1001
ACAD
1000
DSTYLE
1002
{
1070
   172
1070
     1
1070
   279
1070
     2
1002
}
  0
DIMENSION
  5
B9F5
330
1E
100
AcDbEntity
  8
30
  6
Continuous
100
AcDbDimension
  2
*D46
 10
-126.4827805278387
 20
-499.5708385812683
 30
0.0
 11
-132.4827805278384
 21
-558.0708385812681
 31
0.0
 70
    32
  1
 <> 
 71
     0
 72
     0
 41
0.0
 42
116.9999999999997
  3
STANDARD1
100
AcDbAlignedDimension
 13
-41.20000000000027
 23
-616.5708385812681
 33
0.0
 14
-114.7999999999997
 24
-499.5708385812683
 34
0.0
 50
90.0
100
AcDbRotatedDimension
  0
DIMENSION
  5
B9F6
330
1E
100
AcDbEntity
  8
30
  6
Continuous
100
AcDbDimension
  2
*D45
 10
-126.4827805278387
 20
-373.5708385812686
 30
0.0
 11
-132.4827805278384
 21
-436.5708385812683
 31
0.0
 70
    32
  1
 <> 
 71
     0
 72
     0
 41
0.0
 42
125.9999999999997
  3
STANDARD1
100
AcDbAlignedDimension
 13
-112.3288805278388
 23
-499.5708385812683
 33
0.0
 14
-41.20000000000027
 24
-373.5708385812686
 34
0.0
 50
90.0
100
AcDbRotatedDimension
  0
DIMENSION
  5
C8D0
330
1E
100
AcDbEntity
  8
30
  6
Continuous
100
AcDbDimension
  2
*D48
 10
486.1999999999999
 20
-671.6667135812677
 30
0.0
 11
400.1999999999998
 21
-665.6667135812678
 31
0.0
 70
    32
  1
 <> 
 71
     5
 42
171.9999999999995
  3
STANDARD1
100
AcDbAlignedDimension
 13
314.1999999999999
 23
-544.5708385812682
 33
0.0
 14
486.1999999999999
 24
-544.5708385812682
 34
0.0
100
AcDbRotatedDimension
  0
INSERT
  5
C9A2
330
1E
100
AcDbEntity
  8
10
  6
Continuous
100
AcDbBlockReference
  2
A$C275B7FF9
 10
0.0000000000002274
 20
408.3526745713751
 30
0.0
  0
DIMENSION
  5
CA1A
330
1E
100
AcDbEntity
  8
30
  6
Continuous
100
AcDbDimension
  2
*D60
 10
140.0000000000002
 20
428.5085085369583
 30
0.0
 11
105.0000000000002
 21
434.5085085369583
 31
0.0
 70
    32
 71
     5
 42
69.99999999999999
  3
STANDARD1
100
AcDbAlignedDimension
 13
70.00000000000024
 23
374.3526745713751
 33
0.0
 14
140.0000000000002
 24
374.3526745713751
 34
0.0
100
AcDbRotatedDimension
  0
DIMENSION
  5
CA1B
330
1E
100
AcDbEntity
  8
30
  6
Continuous
100
AcDbDimension
  2
*D61
 10
0.0000000000002307
 20
428.5085085369583
 30
0.0
 11
-34.99999999999977
 21
434.5085085369583
 31
0.0
 70
    32
 71
     5
 42
70.0
  3
STANDARD1
100
AcDbAlignedDimension
 13
-69.99999999999977
 23
374.3526745713751
 33
0.0
 14
0.0000000000002274
 24
374.3526745713751
 34
0.0
100
AcDbRotatedDimension
  0
DIMENSION
  5
CA1C
330
1E
100
AcDbEntity
  8
30
  6
Continuous
100
AcDbDimension
  2
*D62
 10
174.9999999999995
 20
428.5085085369583
 30
0.0
 11
157.4999999999998
 21
434.5085085369583
 31
0.0
 70
    32
 71
     5
 42
34.99999999999932
  3
STANDARD1
100
AcDbAlignedDimension
 13
140.0000000000002
 23
374.3526745713751
 33
0.0
 14
174.9999999999995
 24
408.3526745713751
 34
0.0
100
AcDbRotatedDimension
  0
DIMENSION
  5
CA1D
330
1E
100
AcDbEntity
  8
30
  6
Continuous
100
AcDbDimension
  2
*D63
 10
-69.99999999999977
 20
428.5085085369583
 30
0.0
 11
-87.49999999999976
 21
434.5085085369583
 31
0.0
 70
    32
 71
     5
 42
35.0
  3
STANDARD1
100
AcDbAlignedDimension
 13
-104.9999999999997
 23
408.3526745713751
 33
0.0
 14
-69.99999999999977
 24
374.3526745713751
 34
0.0
100
AcDbRotatedDimension
  0
DIMENSION
  5
CA84
330
1E
100
AcDbEntity
  8
30
  6
Continuous
100
AcDbDimension
  2
*D64
 10
70.00000000000023
 20
428.5085085369583
 30
0.0
 11
35.00000000000023
 21
434.5085085369583
 31
0.0
 70
    32
 71
     5
 42
69.99999999999999
  3
STANDARD1
100
AcDbAlignedDimension
 13
0.0000000000002416
 23
374.3526745713751
 33
0.0
 14
70.00000000000023
 24
374.3526745713751
 34
0.0
100
AcDbRotatedDimension
  0
VIEWPORT
  5
9AC
330
1A
100
AcDbEntity
 67
     1
  8
0
  6
Continuous
100
AcDbViewport
 10
171.999535
 20
144.1384739999999
 30
0.0
 40
488.867686
 41
292.351491
 68
    -1
 69
     1
 12
171.999535
 22
144.1384739999999
 13
0.0
 23
0.0
 14
10.0
 24
10.0
 15
10.0
 25
10.0
 16
0.0
 26
0.0
 36
1.0
 17
0.0
 27
0.0
 37
0.0
 42
50.0
 43
0.0
 44
0.0
 45
292.351491
 50
0.0
 51
0.0
 72
   100
 90
    32800
  1

281
     0
 71
     1
 74
     0
110
0.0
120
0.0
130
0.0
111
1.0
121
0.0
131
0.0
112
0.0
122
1.0
132
0.0
 79
     0
146
0.0
  0
ENDSEC
  0
SECTION
  2
OBJECTS
  0
DICTIONARY
  5
C
330
0
100
AcDbDictionary
281
     1
  3
ACAD_GROUP
350
D
  3
ACAD_LAYOUT
350
19
  3
ACAD_MLINESTYLE
350
16
  3
ACAD_PLOTSETTINGS
350
18
  3
ACAD_PLOTSTYLENAME
350
E
  3
ACADDIM
350
6D5E
  3
ACDBVARIABLEDICTIONARY
350
5697
  0
DICTIONARY
  5
178
330
1E
100
AcDbDictionary
280
     1
281
     1
  3
ACAD_LAYOUTSELFREF
360
9011
  0
DICTIONARY
  5
17A
330
1A
100
AcDbDictionary
280
     1
281
     1
  3
ACAD_LAYOUTSELFREF
360
9010
  0
DICTIONARY
  5
D
102
{ACAD_REACTORS
330
C
102
}
330
C
100
AcDbDictionary
281
     1
  0
DICTIONARY
  5
19
102
{ACAD_REACTORS
330
C
102
}
330
C
100
AcDbDictionary
281
     1
  3
Model
350
904E
  3
ﾚｲｱｳﾄ1
350
904F
  0
DICTIONARY
  5
16
102
{ACAD_REACTORS
330
C
102
}
330
C
100
AcDbDictionary
281
     1
  3
STANDARD
350
17
  0
DICTIONARY
  5
18
102
{ACAD_REACTORS
330
C
102
}
330
C
100
AcDbDictionary
281
     1
  0
ACDBDICTIONARYWDFLT
  5
E
102
{ACAD_REACTORS
330
C
102
}
330
C
100
AcDbDictionary
281
     1
  3
Normal
350
F
100
AcDbDictionaryWithDefault
340
F
  0
XRECORD
  5
6D5E
102
{ACAD_REACTORS
330
C
102
}
330
C
100
AcDbXrecord
280
     1
 90
   990106
  3

 60
     0
 61
     0
 62
     1
 63
     3
 64
     0
 65
     0
 66
     0
 67
     3
 68
     1
 69
     0
 70
     0
 71
     0
 72
     0
 40
0.0
170
     0
340
7CA9
  0
DICTIONARY
  5
5697
102
{ACAD_REACTORS
330
C
102
}
330
C
100
AcDbDictionary
281
     1
  3
DIMASSOC
350
5698
  0
XRECORD
  5
9011
102
{ACAD_REACTORS
330
178
102
}
330
178
100
AcDbXrecord
280
     1
340
1E
  0
XRECORD
  5
9010
102
{ACAD_REACTORS
330
17A
102
}
330
17A
100
AcDbXrecord
280
     1
340
1A
  0
LAYOUT
  5
904E
102
{ACAD_REACTORS
330
19
102
}
330
19
100
AcDbPlotSettings
  1

  2
自動 RICOH IPSiO NX760 RPDL (PRINT_SERV 上)
  4
A4
  6
OLE1
 40
5.831416606903076
 41
4.942422866821289
 42
7.609405517578125
 43
5.789093017578125
 44
209.9733276367187
 45
296.9683227539062
 46
21.04999999999999
 47
32.14
 48
0.0
 49
0.0
140
0.0
141
0.0
142
1.0
143
5.0
 70
 11940
 72
     1
 73
     0
 74
     1
  7
monochrome.ctb
 75
     0
147
0.2
148
187.1726961147458
149
672.20055880285
100
AcDbLayout
  1
Model
 70
     1
 71
     0
 10
0.0
 20
0.0
 11
12.0
 21
9.0
 12
0.0
 22
0.0
 32
0.0
 14
0.0
 24
0.0
 34
0.0
 15
0.0
 25
0.0
 35
0.0
146
0.0
 13
0.0
 23
0.0
 33
0.0
 16
1.0
 26
0.0
 36
0.0
 17
0.0
 27
1.0
 37
0.0
 76
     0
330
1E
  0
LAYOUT
  5
904F
102
{ACAD_REACTORS
330
19
102
}
330
19
100
AcDbPlotSettings
  1

  2
LBP5400
  4

  6

 40
0.0
 41
0.0
 42
0.0
 43
0.0
 44
0.0
 45
0.0
 46
0.0
 47
0.0
 48
0.0
 49
0.0
140
0.0
141
0.0
142
1.0
143
1.0
 70
   688
 72
     0
 73
     0
 74
     5
  7
monochrome.stb
 75
    16
147
1.0
148
0.0
149
0.0
100
AcDbLayout
  1
ﾚｲｱｳﾄ1
 70
     1
 71
     1
 10
-5.873749
 20
-5.87375
 11
204.099579
 21
291.1369009999999
 12
0.0
 22
0.0
 32
0.0
 14
4.273573
 24
5.205245999999998
 34
0.0
 15
194.610095
 25
283.0697009999996
 35
0.0
146
0.0
 13
0.0
 23
0.0
 33
0.0
 16
1.0
 26
0.0
 36
0.0
 17
0.0
 27
1.0
 37
0.0
 76
     0
330
1A
  0
MLINESTYLE
  5
17
102
{ACAD_REACTORS
330
16
102
}
330
16
100
AcDbMlineStyle
  2
STANDARD
 70
     0
  3

 62
   256
 51
90.0
 52
90.0
 71
     2
 49
0.5
 62
   256
  6
BYLAYER
 49
-0.5
 62
   256
  6
BYLAYER
  0
ACDBPLACEHOLDER
  5
F
102
{ACAD_REACTORS
330
E
102
}
330
E
  0
DICTIONARYVAR
  5
5698
102
{ACAD_REACTORS
330
5697
102
}
330
5697
100
DictionaryVariables
280
     0
  1
1
  0
ENDSEC
  0
EOF
